<?xml version="1.0" standalone="no"?>
<!DOCTYPE svg PUBLIC "-//W3C//DTD SVG 1.1//EN" "http://www.w3.org/Graphics/SVG/1.1/DTD/svg11.dtd" >
<svg xmlns="http://www.w3.org/2000/svg" xmlns:xlink="http://www.w3.org/1999/xlink" version="1.1">
<metadata>
Created by FontForge 20170812 at Thu Mar 31 14:26:16 2022
 By www-data
</metadata>
<defs>
<font id="VacationHoneymoonRegular" horiz-adv-x="414" >
  <font-face 
    font-family="Vacation Honeymoon"
    font-weight="400"
    font-stretch="normal"
    units-per-em="1000"
    panose-1="0 0 0 0 0 0 0 0 0 0"
    ascent="800"
    descent="-200"
    x-height="339.022"
    cap-height="769.181"
    bbox="-244.003 -544.072 974.282 958.066"
    underline-thickness="50"
    underline-position="-100"
    unicode-range="U+000A-20AC"
  />
<missing-glyph horiz-adv-x="527" 
d="M50 700h427v-700h-427v700zM78 680l185 -309l186 309h-371zM251 350l-180 300v-601zM264 329l-185 -308h370zM276 350l181 -303v605z" />
    <glyph glyph-name=".notdef" horiz-adv-x="527" 
d="M50 700h427v-700h-427v700zM78 680l185 -309l186 309h-371zM251 350l-180 300v-601zM264 329l-185 -308h370zM276 350l181 -303v605z" />
    <glyph glyph-name=".null" horiz-adv-x="0" 
 />
    <glyph glyph-name=".null" horiz-adv-x="0" 
 />
    <glyph glyph-name="LF" unicode="&#xa;" horiz-adv-x="0" 
 />
    <glyph glyph-name="controlCR" unicode="&#xd;" horiz-adv-x="0" 
 />
    <glyph glyph-name="space" unicode=" " horiz-adv-x="352" 
 />
    <glyph glyph-name="exclam" unicode="!" horiz-adv-x="219" 
d="M124.195 541.42c21.8203 1.03125 45.876 -14.3857 44.9209 -38.749c-3.85449 -98.4375 -12.4932 -196.633 -16.7334 -295.073c-2.13574 -49.542 -4.22656 -99.0811 -6.48047 -148.62c-1.1748 -25.7354 -2.93164 -51.4648 -6.62695 -76.9648
c-3.55566 -24.5322 -6.94238 -55.5068 -32.0957 -67.0107c-49.6562 -22.708 -52.6611 96.7129 -54.1953 121.996c-3.03711 49.959 -3.40039 100.22 -2.64941 150.245c1.55664 103.852 5.58301 207.754 19.9678 310.695c3.42188 24.4717 31.1084 42.4023 53.8926 43.4814z
M104.264 -119.877c16.9502 2.79492 38.8691 -8.49316 37.5645 -28.1582c-1.5791 -23.7461 -0.974609 -48.2588 -5.35742 -71.6797c-5.38574 -28.7686 -47.4248 -37.2773 -60.1475 -10.2529c-9.82031 20.8555 -10.1064 47.0146 -7.83691 69.5576
c2.01465 20.0283 14.7881 37.0703 35.7773 40.5332z" />
    <glyph glyph-name="quotedbl" unicode="&#x22;" horiz-adv-x="242" 
d="M84.8662 515.063c14.9893 2.47363 35.4492 -7.65234 33.8516 -25.376c-1.3877 -15.4258 -2.47656 -30.9375 -3.38379 -46.3975c-0.652344 -11.1602 -3.78418 -26.8906 0.961914 -37.2607c9.94434 -21.7246 -27.3135 -49.6152 -44.8145 -32.5605
c-26.4805 25.8057 -22.4824 70.9453 -18.8662 105.059c1.91309 18.0518 13.2578 33.4043 32.251 36.5361zM163.233 497.021c20.1328 0.786133 31.873 -14.5703 28.7695 -33.6113c-3.70508 -22.7334 -8.0918 -44.9199 -15.2891 -66.832
c-5.30957 -16.1641 -31.5195 -31.8438 -44.0449 -13.1338c-14.0439 20.9766 -7.84668 53.0879 -5.88867 76.8438c1.61035 19.5762 16.0205 35.9375 36.4531 36.7334z" />
    <glyph glyph-name="quotedbl" unicode="&#x201d;" horiz-adv-x="242" 
d="M84.8662 515.063c14.9893 2.47363 35.4492 -7.65234 33.8516 -25.376c-1.3877 -15.4258 -2.47656 -30.9375 -3.38379 -46.3975c-0.652344 -11.1602 -3.78418 -26.8906 0.961914 -37.2607c9.94434 -21.7246 -27.3135 -49.6152 -44.8145 -32.5605
c-26.4805 25.8057 -22.4824 70.9453 -18.8662 105.059c1.91309 18.0518 13.2578 33.4043 32.251 36.5361zM163.233 497.021c20.1328 0.786133 31.873 -14.5703 28.7695 -33.6113c-3.70508 -22.7334 -8.0918 -44.9199 -15.2891 -66.832
c-5.30957 -16.1641 -31.5195 -31.8438 -44.0449 -13.1338c-14.0439 20.9766 -7.84668 53.0879 -5.88867 76.8438c1.61035 19.5762 16.0205 35.9375 36.4531 36.7334z" />
    <glyph glyph-name="quotedbl" unicode="&#x201c;" horiz-adv-x="242" 
d="M84.8662 515.063c14.9893 2.47363 35.4492 -7.65234 33.8516 -25.376c-1.3877 -15.4258 -2.47656 -30.9375 -3.38379 -46.3975c-0.652344 -11.1602 -3.78418 -26.8906 0.961914 -37.2607c9.94434 -21.7246 -27.3135 -49.6152 -44.8145 -32.5605
c-26.4805 25.8057 -22.4824 70.9453 -18.8662 105.059c1.91309 18.0518 13.2578 33.4043 32.251 36.5361zM163.233 497.021c20.1328 0.786133 31.873 -14.5703 28.7695 -33.6113c-3.70508 -22.7334 -8.0918 -44.9199 -15.2891 -66.832
c-5.30957 -16.1641 -31.5195 -31.8438 -44.0449 -13.1338c-14.0439 20.9766 -7.84668 53.0879 -5.88867 76.8438c1.61035 19.5762 16.0205 35.9375 36.4531 36.7334z" />
    <glyph glyph-name="numbersign" unicode="#" horiz-adv-x="486" 
d="M425.078 264.051c19.9648 -0.869141 10.29 -29.1221 -6.89551 -28.3994c-17.5264 0.741211 -35.0557 1.2666 -52.585 1.69336c-1.76953 -16.1514 -3.44336 -32.3115 -4.94531 -48.4844c-0.461914 -4.9502 -0.894531 -9.90039 -1.34668 -14.8467
c16.1318 0.286133 32.2666 0.493164 48.4014 0.55957c18.1787 0.0761719 9.35156 -25.9619 -6.2998 -25.9717c-14.8145 -0.00976562 -29.625 -0.12793 -44.4326 -0.328125c-3.79395 -42.7139 -7.40039 -85.4434 -11.3633 -128.142
c-2.66406 -28.7051 -5.15918 -57.3311 -8.85156 -85.9316c-3.4668 -26.8525 -7.72852 -62.3438 -23.1504 -85.1924c-8.69629 -12.8818 -28.5488 -22.3516 -40.3867 -7.12012c-16.001 20.5918 -18.3945 56.9941 -20.2275 82.1504
c-2.02441 27.7568 -1.875 55.4629 -1.66797 83.2734c0.34375 45.9609 2.40039 92.1602 5.54199 138.114c-11.5479 -0.490234 -23.0928 -1.02148 -34.6318 -1.62598c-3.54297 -48.2715 -5.98438 -96.6035 -9.15137 -144.904
c-1.72852 -26.3652 -2.74414 -52.7725 -4.44727 -79.1348c-1.7002 -26.3086 -1.64941 -54.5586 -8.94238 -79.9912c-7.06055 -24.624 -39.4453 -38.0029 -57.9678 -17.2842c-18.2578 20.4199 -18.248 50.5449 -19.7539 76.3691
c-1.57227 27.002 -1.5625 54.1826 -1.83984 81.2266c-0.538086 52.4189 1.79785 104.873 4.62793 157.213c-20.6484 -1.66504 -41.291 -3.4541 -61.9141 -5.49121c-17.7207 -1.74707 -16.333 22.8428 -0.633789 24.4473c21.2891 2.17676 42.5996 4.09277 63.9199 5.88477
c1.33984 23.7178 2.80371 47.54 4.50684 71.3877c-18.7168 -1.06934 -37.4307 -2.25 -56.1279 -3.68848c-20.6074 -1.58496 -19.0479 27.0439 -0.735352 28.4316c19.668 1.48926 39.3457 2.71191 59.0332 3.81348c5.76465 71.2695 14.3018 142.514 29.5459 211.743
c5.07031 23.0293 27.7822 39.4414 50.459 40.7119c19.9229 1.11719 43.6084 -13.6143 42.0586 -36.2812c-4.85059 -70.9033 -13.4707 -141.53 -21.1797 -212.243c10.9023 0.238281 21.8047 0.413086 32.707 0.53125c7.28906 84.6162 16.7588 169.563 35.0557 251.926
c5.3252 23.9688 28.8838 41.0488 52.5186 42.373c20.5439 1.15234 45.6455 -14.1738 43.7773 -37.7607c-6.79883 -85.7783 -18.9492 -171.395 -28.9248 -257.198c18.752 -0.452148 37.5039 -1.01855 56.249 -1.83008zM259.008 174.771
c1.64258 21.0146 3.27441 42.1123 5 63.251c-11.1221 -0.121094 -22.2441 -0.299805 -33.3623 -0.544922c-2.37793 -22.8037 -4.57715 -45.623 -6.47754 -68.4678c11.5098 0.646484 23.0234 1.21973 34.54 1.75098c0.101562 1.33691 0.194336 2.67383 0.299805 4.01074z" />
    <glyph glyph-name="dollar" unicode="$" horiz-adv-x="400" 
d="M313.098 128.795c20.4834 -33.4863 39.8691 -73.8965 36.8584 -114.354c-2.5498 -34.3174 -23.9971 -67.291 -57.9512 -77.3691c-18.7832 -5.57324 -38.7734 -5.06738 -57.8652 -0.512695c3.15723 -41.5615 6.57617 -83.085 9.57422 -124.522
c1.56934 -21.7217 -34.6611 -30.4375 -38.0195 -6.41797c-6.88477 49.2422 -10.6406 98.0234 -12.2227 147.323c-65.9316 38.1943 -90.1807 114.907 -96.7852 186.667c-1.3623 14.8018 24.3604 21.0469 26.1016 4.40527c4.72656 -45.1074 15.9219 -91.3232 43.7998 -128.078
c7.40039 -9.75586 16.2402 -18.9072 26.124 -26.8457c-0.0322266 2.79785 -0.0927734 5.58594 -0.112305 8.38672c-0.290039 41.9561 -0.229492 83.9121 0.0986328 125.872c-55.1094 56.8125 -117.6 115.309 -136.718 195.125
c-19.8086 82.6934 8.4668 192.31 101.356 215.696c14.8623 3.74316 29.8447 4.69141 44.3408 3.22363c1.22852 43.1406 2.45117 86.2783 3.58105 129.406c0.37207 14.2217 25.5254 20.4316 25.252 4.26172l-2.3584 -139.189
c42.2939 -13.6582 76.0889 -48.9434 82.8018 -96.3682c2.28516 -16.1475 -29.0654 -27.1104 -32.2578 -9.42188c-4.8252 26.7383 -24.7354 55.0459 -51.2471 64.2578c-0.0478516 -2.97266 -0.0986328 -5.94531 -0.149414 -8.92188
c-1.35254 -79.9434 -3.00781 -159.896 -3.54883 -239.856c4.86035 -5.8252 9.68945 -11.5195 14.3555 -17.0107c26.3184 -30.9717 53.7119 -60.9688 74.9912 -95.7568zM194.973 277.916c1.46777 71.5908 3.40918 143.179 5.43652 214.754
c-1.11133 -0.191406 -2.22559 -0.398438 -3.3457 -0.65918c-34.8711 -8.09766 -48.9814 -44.8057 -51.6484 -74.1631c-1.58496 -17.4434 0.993164 -33.54 5.54492 -50.7285c4.57422 -17.2715 11.3545 -34.2119 19.3379 -50.1787
c6.26758 -12.5352 14.9443 -25.7734 24.6748 -39.0244zM296.733 -30.6631c6.73242 6.03809 5.20215 13.3184 2.41992 21.2637c-4.86719 13.9131 -13.0664 25.8047 -21.8164 37.5156c-16.1602 21.6289 -33.9629 41.7686 -52.3418 61.4209
c1.45117 -40.833 3.96289 -81.6816 6.89453 -122.505c11.3799 -3.94727 23.3037 -6.08594 35.4404 -5.80566c9.30762 0.216797 22.0977 1.55664 29.4033 8.11035z" />
    <glyph glyph-name="percent" unicode="%" horiz-adv-x="578" 
d="M461.977 499.486c24.9941 -8.9668 29.3877 -35.8633 19.7461 -57.8301c-48.3955 -110.288 -101.337 -218.559 -149.51 -329.009c-23.9053 -54.8037 -47.1709 -109.906 -70.5537 -164.938c-11.9053 -28.0146 -23.5742 -56.0957 -35.9502 -83.9092
c-12.7832 -28.7275 -24.4971 -57.2861 -42.7012 -83.1016c-12.5352 -17.7773 -51.7861 -16.0303 -50.6406 10.6475c1.30469 30.3154 10.9336 58.9443 19.541 87.8311c8.58496 28.7979 18.3125 57.1592 28.2402 85.5176c20.6328 58.9443 43.0195 117.147 66.4248 175.042
c45.3652 112.229 93.1465 225.258 150.827 331.761c11.8857 21.9414 39.9229 36.835 64.5762 27.9893zM176.205 204.242c-23.8418 -9.77246 -52.6934 -9.10254 -76.127 1.67578c-29.8984 13.7451 -44.9863 41.5498 -49.7607 72.8242
c-3.36426 22.043 20.8525 42.708 40.2119 46.4385c15.6768 21.2695 42.8633 38.0479 62.7451 43.8955c46.04 13.541 89.1836 -9.55859 92.4717 -59.4854c2.81055 -42.7012 -30.6631 -89.4199 -69.541 -105.349zM121.227 318.287
c7.23242 -5.8125 12.1328 -14.5898 13.4951 -25.3037c2.39355 -18.873 19.207 -38.8252 40.1328 -40.2002c25.0508 -1.64551 38.2705 25.0195 38.2041 47.0342c-0.0986328 31.9873 -23.835 49.2207 -54.873 40.3467c-10.3545 -2.95996 -25.8789 -11.1689 -36.959 -21.877z
M472.764 84.709c44.4395 -11.4785 61.5059 -58.7715 53.2461 -100.512c-9.4375 -47.7305 -55.8379 -87.6279 -105.424 -83.0508c-53.7402 4.95898 -77.5654 56.2861 -84.374 103.256c-3.02441 20.8623 14.8682 37.332 34.4727 42.1865
c17.7207 34.8359 65.623 47.5361 102.079 38.1201zM472.441 -14.8945c12.6846 18.6309 7.79297 44.0371 -12.1143 55.6777c-11.2363 6.57324 -39.916 7.56348 -55.0801 -0.951172c3.51367 -3.23047 6.38477 -7.4541 8.27246 -12.8428
c5.94922 -17.0039 9.75586 -44.1084 24.8027 -53.5371c13.4863 -8.44824 26.0342 -0.222656 34.1191 11.6533z" />
    <glyph glyph-name="ampersand" unicode="&#x26;" horiz-adv-x="526" 
d="M458.114 95.6875c45.2705 -57.8018 -5.05566 -138.502 -52.3184 -177.228c-55.418 -45.4229 -143.943 -74.0801 -212.536 -43.6621c-33.5215 14.8623 -60.0498 43.9619 -72.6807 78.3174c-14.8369 40.3486 -7.3252 85.5674 10.166 123.711
c9.43457 20.5693 21.9121 39.6875 36.5127 57.3662c-12.6338 1.32715 -25.0859 3.74609 -37.0898 7.82031c-63.2451 21.4697 -89.2002 88.8594 -77.3906 151.025c10.959 57.6973 48.2295 110.085 92.0986 147.633c37.9072 32.4453 92.8154 55.9336 142.845 40.9951
c21.6064 -6.44922 41.5869 -18.4463 53.3867 -38.21c12.8789 -21.5723 15.5977 -46.8496 17.2715 -71.4229c1.41016 -20.6934 -33.4385 -29.1855 -36.3164 -6.12988c-2.9248 23.4561 -6.7959 51.499 -27.668 66.2402c-17.4561 12.3311 -40.623 11.6436 -59.1582 1.93555
c-19.0352 -9.97266 -34.1865 -26.8594 -47.1162 -43.6689c-12.417 -16.1445 -22.3105 -36.6533 -27.4512 -53.9697c-6.3916 -21.5244 -10.9941 -45.5508 -6.3916 -64.958c1.06934 -4.51074 2.75 -8.83301 4.45312 -13.1299
c-3.36426 8.48633 4.09668 -6.70996 5.5166 -8.68066c1.2002 -1.68359 2.48633 -3.29395 3.81348 -4.87598c0.298828 -0.242188 0.680664 -0.557617 1.21191 -1.00977c1.76367 -1.47656 3.61914 -2.83301 5.56738 -4.06445
c-3.6416 1.50195 -2.70605 1.10449 2.81055 -1.19727c2.88086 -1.09863 5.81543 -2.02539 8.78809 -2.83105c0.897461 -0.133789 2.24707 -0.34375 4.16602 -0.652344c5.32812 -0.515625 10.6221 -1.05078 15.9727 -1.29883
c7.35254 -0.337891 14.75 -0.398438 22.1123 -0.181641c0.149414 0.0761719 10.3164 0.642578 11.4404 0.744141c29.5869 2.66406 58.3301 8.86133 87.3154 15.0361c22.6221 4.81934 44.2832 -9.33887 48.6094 -31.4707
c4.57715 -23.418 -12.7832 -46.8174 -33.8555 -55.5645c-4.61523 -2.20605 -9.33887 -4.24316 -14.1133 -6.17871c-46.4229 -21.1709 -94.5195 -52.9443 -121.188 -97.7305c-24.2461 -40.7178 -22.0371 -90.7402 19.0283 -119.35
c41.043 -28.5967 99.3604 -16.6885 141.73 3.26367c42.1406 19.8438 94.582 70.293 71.0273 121.837c-10.2939 22.5303 -34.7852 36.9941 -58.8877 39.251c-14.9697 1.40332 -29.959 -1.11133 -43.9932 -6.35352c-5.83105 -2.17676 -11.583 -4.7168 -17.0771 -7.6582
c-2.18359 -1.16797 -7.20996 -5.16602 -10.04 -6.00977c-4.02344 -1.20312 -3.32617 -5.65625 -4.63086 0.0957031c3.86426 -17.0332 -25.3408 -30.6445 -29.5586 -12.4336c-4.65332 20.0918 11.4531 31.1504 27.0635 40.2959
c17.7393 10.3896 37.2705 18.1533 57.7314 20.9639c36.583 5.0293 75.5283 -6.87207 98.8223 -36.6113z" />
    <glyph glyph-name="quotesingle" unicode="'" horiz-adv-x="175" 
d="M94.8135 527.401c13.9131 0.780273 32.1729 -9.87402 30.4131 -26.2354c-2.61621 -24.2803 -7.58496 -47.5645 -13.1904 -71.3037c-4.77441 -20.2285 -8.86816 -42.7969 -21.6133 -59.6709c0.0351562 0.139648 0.0673828 0.283203 0.102539 0.422852
c-0.827148 -0.999023 -1.75 -1.9541 -2.74902 -2.8584c-23.4854 -21.2246 -34.6895 24.8154 -36.3066 38.5254c-3.57812 30.335 -0.363281 62.1338 6.85645 91.6797c4.06445 16.6318 19.8047 28.5078 36.4873 29.4404z" />
    <glyph glyph-name="quotesingle" unicode="&#x2019;" horiz-adv-x="175" 
d="M94.8135 527.401c13.9131 0.780273 32.1729 -9.87402 30.4131 -26.2354c-2.61621 -24.2803 -7.58496 -47.5645 -13.1904 -71.3037c-4.77441 -20.2285 -8.86816 -42.7969 -21.6133 -59.6709c0.0351562 0.139648 0.0673828 0.283203 0.102539 0.422852
c-0.827148 -0.999023 -1.75 -1.9541 -2.74902 -2.8584c-23.4854 -21.2246 -34.6895 24.8154 -36.3066 38.5254c-3.57812 30.335 -0.363281 62.1338 6.85645 91.6797c4.06445 16.6318 19.8047 28.5078 36.4873 29.4404z" />
    <glyph glyph-name="quotesingle" unicode="&#x2018;" horiz-adv-x="175" 
d="M94.8135 527.401c13.9131 0.780273 32.1729 -9.87402 30.4131 -26.2354c-2.61621 -24.2803 -7.58496 -47.5645 -13.1904 -71.3037c-4.77441 -20.2285 -8.86816 -42.7969 -21.6133 -59.6709c0.0351562 0.139648 0.0673828 0.283203 0.102539 0.422852
c-0.827148 -0.999023 -1.75 -1.9541 -2.74902 -2.8584c-23.4854 -21.2246 -34.6895 24.8154 -36.3066 38.5254c-3.57812 30.335 -0.363281 62.1338 6.85645 91.6797c4.06445 16.6318 19.8047 28.5078 36.4873 29.4404z" />
    <glyph glyph-name="parenleft" unicode="(" horiz-adv-x="462" 
d="M409.202 -132.745c8.37793 -15.6289 -0.512695 -33.7266 -13.4521 -43.6895c-70.5029 -54.2842 -167.024 -63.9033 -238.88 -6.9541c-61.3096 48.5869 -86.5742 121.712 -98.4346 196.403c-12.0039 75.6084 -10.9824 152.895 1.68652 228.334
c12.7578 75.9746 38.2549 151.067 75.624 218.546c29.4561 53.1895 92.7109 141.187 160.11 89.2158c11.4941 -8.86133 -3.30371 -28.3008 -15.2559 -22.3799c-9.32031 4.61523 -10.1289 4.49707 -19.083 -0.181641c-6.16602 -3.22168 -11.6504 -6.5957 -16.6387 -11.5898
c-10.5742 -10.584 -19.2002 -24.0869 -26.5723 -37.0137c-16.5869 -29.0771 -29.1631 -60.6309 -39.4189 -92.4395c-37.1465 -115.199 -50.041 -246.104 -24.8018 -364.446c5.54785 -26.0215 13.9512 -54.9336 25.0059 -77.3906
c12.5957 -25.5762 28.3613 -44.376 48.8379 -59.3711c17.7715 -13.0098 37.2109 -21.3555 58.5 -22.2949c27.0596 -1.19336 54.6416 9.29492 80.7939 17.666c15.9854 5.11816 33.3428 3.69238 41.9785 -12.4141z" />
    <glyph glyph-name="parenright" unicode=")" horiz-adv-x="382" 
d="M317.266 312.877c14.8105 -72.502 18.6357 -145.566 10.293 -219.093c-7.75391 -68.3193 -23.6475 -139.185 -61.7051 -197.477c-37.8916 -58.0371 -95.041 -107.258 -166.285 -115.009c-24.2803 -2.6416 -48.7236 10.0459 -49.5479 37.1406
c-0.849609 27.9697 22.6191 46.7598 47.1992 53.4697c-8.89648 -2.42871 5.37012 2.12012 5.86621 2.31445c2.24121 0.878906 4.44727 1.85645 6.66602 2.78906c5.58594 2.35547 11.1377 4.79102 16.5205 7.58301c0.480469 0.331055 1.41602 0.948242 2.88379 1.93457
c2.67383 1.79492 5.44043 3.4502 8.09863 5.27051c5.34473 3.66016 10.4062 7.64551 15.4551 11.6943c0.598633 0.480469 1.08203 0.859375 1.54395 1.22266c0.126953 0.143555 0.209961 0.245117 0.369141 0.419922c2.17383 2.39648 4.58008 4.60254 6.79199 6.97754
c4.41797 4.74609 8.62305 9.67969 12.6143 14.7881c0.910156 1.16504 3.79395 4.94629 4.2334 5.4043c1.67773 2.51172 3.2793 5.11914 4.82324 7.66895c3.84863 6.35059 7.43262 12.8604 10.7783 19.4873c12.9932 25.7256 19.3057 44.0957 26.7764 71.9258
c7.68066 28.6094 13.3652 57.7891 17.0928 87.1719c7.2959 57.4834 6.4873 116.374 -1.42285 173.736c-7.49023 54.3359 -18.7617 109.855 -42.1318 159.843c-18.373 39.2949 -59.6104 106.283 -111.027 68.3506c-15.626 -11.5264 -30.4941 9.25586 -15.2822 21.0332
c55.3896 42.8799 131.029 -0.821289 168.673 -46.9219c42.0078 -51.4453 67.5264 -117.125 80.7236 -181.726z" />
    <glyph glyph-name="asterisk" unicode="*" horiz-adv-x="242" 
d="M180.364 361.021c20.4893 -1.1582 10.6553 -30.332 -7.07422 -29.2021c-8.20312 0.522461 -16.3965 1.01855 -24.5898 1.42871c8.37793 -9.90918 16.6826 -19.8789 24.876 -29.9473c9.6416 -11.8477 -12.6113 -28.085 -22.2119 -16.1387
c-4.96582 6.17871 -10.0205 12.2803 -15.0527 18.3984c-0.162109 -7.0791 -0.273438 -14.1582 -0.286133 -21.2441c-0.0253906 -15.0654 -24.1025 -21.4033 -26.5283 -4.47559c-1.5625 10.915 -3.19824 22.0908 -4.63379 33.3906
c-7.62402 -8.89648 -14.9766 -18.0449 -22.0625 -27.4443c-10.3486 -13.7314 -30.7266 -0.270508 -19.7549 14.3682c8.57812 11.4463 17.6182 22.4824 27.002 33.2002c-8.47656 -0.556641 -16.9502 -1.40625 -25.417 -2.70215
c-20.2695 -3.10352 -18.4873 25.1875 -0.725586 28.0332c8.18066 1.31152 16.377 2.25391 24.583 2.92871c-10.2881 11.6279 -20.6582 23.1826 -31.2139 34.5811c-9.99805 10.7939 11.4209 26.3438 21.4863 15.6104c7.61719 -8.12305 15.1484 -16.3223 22.6318 -24.5664
c0.483398 6.69434 1.23145 13.3379 2.37109 19.8828c3.3291 19.1396 38.0312 24.8311 38.7695 1.85547c0.254883 -7.90332 -0.0957031 -15.7686 -0.707031 -23.6152c7.71875 6.83105 15.584 13.5088 23.6758 19.9482c14.2988 11.376 28.5781 -8.57227 14.3877 -19.8057
c-9.37109 -7.41309 -18.4492 -15.1289 -27.2568 -23.1123c9.24414 -0.366211 18.4912 -0.849609 27.7314 -1.37207z" />
    <glyph glyph-name="plus" unicode="+" horiz-adv-x="276" 
d="M215.568 156.418c19.5947 0.277344 10.0059 -27.75 -6.78516 -27.9883c-10.7051 -0.152344 -21.4102 -0.384766 -32.1152 -0.652344c-0.222656 -19.2324 -0.585938 -38.5889 -1.6582 -57.7764c-1.30469 -23.332 -0.649414 -43.2646 -14.4482 -63.1523
c-8.70215 -12.5449 -29.5898 -16.1543 -41.915 -7.56934c-17.5576 12.2295 -20.3047 36.9746 -24.042 56.6621c-3.87402 20.416 -6.49414 41.6377 -7.41406 62.3945c-0.0859375 1.92285 -0.136719 3.83594 -0.209961 5.75488
c-7.76074 -0.439453 -15.5176 -0.859375 -23.2715 -1.36914c-18.8281 -1.23535 -17.4941 24.5957 -0.674805 26.041c7.75391 0.665039 15.5107 1.20898 23.2646 1.79102c-0.31543 31.6309 1.13574 63.0479 5.2041 94.6533c2.88672 22.4248 28.501 38.4482 49.083 39.6006
c19.8662 1.11426 41.7949 -13.2324 40.9131 -35.291c-1.25391 -31.3564 -3.22754 -62.6396 -4.22656 -93.9902c12.7578 0.414062 25.5225 0.709961 38.2959 0.891602z" />
    <glyph glyph-name="comma" unicode="," horiz-adv-x="199" 
d="M119.914 55.1504c18.1631 -1.46777 33.1719 -19.2969 27.4102 -37.7266c-8.81445 -28.1924 -20.8213 -54.3701 -36.2246 -79.5293c-8.4541 -13.8115 -23.2432 -22.9697 -39.7061 -19.6846c-13.5312 2.69922 -25.4453 17.8281 -20.0752 32.1396
c8.94727 23.8545 16.6094 48.2432 24.2109 72.5527c5.92383 18.9424 23.666 33.9219 44.3848 32.248z" />
    <glyph glyph-name="hyphen" unicode="-" horiz-adv-x="315" 
d="M231.662 210.32c16.4502 2.72754 33.1016 -7.5625 33.6367 -25.2129c0.553711 -18.1309 -15.1553 -32.9736 -32.042 -36.2998c-28.5049 -5.61133 -57.8408 -5.17871 -86.7783 -6.03809c-26.8076 -0.795898 -53.4912 -4.43457 -80.2646 -4.61914
c-21.7441 -0.149414 -19.1914 27.3271 -6.55762 37.1182c46.5723 36.0898 116.995 25.9355 172.006 35.0518z" />
    <glyph glyph-name="period" unicode="." horiz-adv-x="176" 
d="M125.185 11.4785c1.86816 -11.1182 0.685547 -21.8691 -1.49512 -32.8955c-3.60645 -18.2197 -22.4121 -31.5566 -40.1514 -32.3936c-7.85547 -0.37207 -14.9795 1.41992 -21.5625 5.75195c-6.43652 4.23633 -12.6846 15.1953 -11.9082 23.1182
c0.84082 8.56543 1.06348 17.0703 2.14258 25.6357c-0.333984 -3.04004 -0.667969 -6.07715 -1.00195 -9.11719c0.273438 2.50781 0.486328 5.00977 0.638672 7.52441c1.24414 20.5918 15.4727 36.3613 35.7773 40.5342c8.3457 1.71582 18.9551 -0.369141 25.8564 -5.43359
c8.04004 -5.89844 10.1475 -13.4678 11.7041 -22.7246z" />
    <glyph glyph-name="slash" unicode="/" horiz-adv-x="443" 
d="M370.484 496.229c22.6895 -8.14258 28.0244 -33.5645 18.3418 -53.7012c-51.4902 -107.076 -104.912 -213.146 -153.817 -321.471c-24.666 -54.6348 -48.6855 -109.601 -72.3613 -164.672c-23.0615 -53.6387 -43.3506 -111.495 -79.6982 -157.812
c-8.87793 -11.3096 -32.8018 -10.6572 -32.9414 6.92578c-0.470703 58.4102 24.8447 117.065 44.4395 171.197c20.4355 56.459 42.2305 112.325 65.1709 167.81c45.6709 110.463 94.1016 220.478 150.897 325.727c11.0039 20.3945 37.0986 34.2031 59.9688 25.9971z" />
    <glyph glyph-name="zero" unicode="0" horiz-adv-x="432" 
d="M72.9844 -4.17871c-32.2285 88.1016 -25.5566 183.091 -10.3066 274.434c-12.4424 46.8584 13.627 100.558 42.0811 136.708c29.5869 37.6016 78.5078 75.8438 129.266 68.6504c42.3389 -6 82.9199 -40.3994 102.474 -77.3457
c24.4648 -46.2344 36.8916 -97.457 42.5762 -149.198c5.76465 -52.4639 2.26367 -106.437 -7.12988 -158.306c-9.10352 -50.2578 -27.0342 -100.363 -58.4355 -141.136c-30.5703 -39.6934 -80.4404 -68.2266 -131.555 -59.0879
c-55.6533 9.9502 -90.457 54.6699 -108.97 105.281zM124.809 389.376c-6.61816 -8.52441 -13.2812 -18.541 -19.084 -29.3672c7.88184 3.28223 16.3076 4.87988 24.3701 4.22754c26.4512 -2.13867 39.4863 -24.7129 35.791 -49.2646
c-13.5859 -90.2725 -31.9492 -187.017 -5.98438 -276.882c8.01855 -27.75 23.1289 -63.9004 50.7969 -70.168c6.45215 -1.46387 8.44434 -0.636719 12.8496 0.490234c-1.81152 -0.461914 -5.65625 -2.5918 2.68066 0.995117
c8.87793 3.81934 6.55469 3.02344 14.3154 8.66406c7.80859 5.67578 20.0449 20.9863 27.0986 32.9229c40.3555 68.2773 48.5078 155.329 46.5283 233.079c-1.04395 40.9473 -5.8252 83.165 -17.8955 122.422c-11.4814 37.3506 -30.0928 77.209 -74.1406 81.0576
c-38.7383 3.38379 -75.207 -29.6885 -97.3262 -58.1768z" />
    <glyph glyph-name="one" unicode="1" horiz-adv-x="343" 
d="M78.6533 418.684c-8.94727 -15.6162 -35.8799 -9.47363 -26.8145 9.48535c10.3164 21.5752 25.1846 40.4189 44.5762 54.5488c17.5742 12.8086 42.4023 26.833 64.9131 21.7783c43.4395 -9.75293 52.6572 -73.4121 57.457 -109.286
c6.94238 -51.8975 9.12598 -104.285 9.97949 -156.587c1.72168 -105.641 -1.2959 -211.523 -2.6709 -317.167c16.5811 -1.875 32.9131 -1.02832 48.5742 6.69043c18.376 9.05957 25.3154 -17.5732 8.39746 -25.7949c-20.1494 -9.78809 -41.2725 -10.8223 -62.4619 -8.38672
c-8.46387 -17.9268 -25.9678 -30.9775 -46.126 -35.1221c-26.3945 -5.4209 -53.0977 13.1904 -54.126 40.5742c-0.0634766 1.68066 -0.0761719 3.36426 -0.129883 5.04492c-5.50684 -1.33008 -10.8994 -3.14453 -16.0527 -5.52539
c-4.04883 -1.86816 -7.83691 -4.09277 -11.625 -6.44824c-0.697266 -0.436523 -3.10059 -2.4707 -4.79688 -3.29199c-0.538086 -1.6875 -1.41699 -3.2627 -2.7002 -4.52051c-5.60547 -5.4873 -10.0869 -7.05371 -17.7236 -5.39844
c-4.13184 0.894531 -6.71289 5.56738 -6.8623 9.44727c-0.614258 15.8291 19.0098 26.5781 31.1855 32.8262c8.91309 4.57422 18.376 7.86523 28.1006 10.0039c-0.505859 107.223 15.4287 214.401 25.1406 320.956c5.24609 57.5537 12.373 116.053 11.2744 173.931
c-0.232422 12.207 0.238281 26.1074 -2.10742 38.0693c-2.91895 14.8623 -18.373 6.69141 -27.75 1.5791c-19.834 -10.8135 -36.4756 -27.9004 -47.6514 -47.4062z" />
    <glyph glyph-name="two" unicode="2" horiz-adv-x="468" 
d="M65.2539 -118.961c-8.78516 8.53711 -11.2969 16.6855 -13.6807 28.3232c-9.41211 45.9326 24.8672 81.9746 66.2285 96.7539c33.6357 12.0195 68.8086 9.45996 102.705 1.08887c0.856445 1.3623 1.71875 2.71875 2.55566 4.09082
c7.29199 11.9492 13.8838 24.3027 20.3008 36.7422c12.6748 24.5732 21.6484 46.8711 29.3516 71.6514c16.3037 52.4482 26.3047 107.344 30.9961 162.032c4.76172 55.4814 2.31738 113.707 -18.0771 166.161c-4.35156 11.1982 -10.3486 23.3096 -22.2725 27.6484
c-12.9326 4.70117 -28.998 -0.538086 -40.4062 -7.35938c-20.1963 -12.0801 -33.957 -34.0527 -36.2588 -57.4229c-1.53418 -15.5498 -29.6855 -22.7432 -28.2305 -4.76465c3.73047 46.1006 36.1123 87.3057 81.9805 98.0039
c58.585 13.668 94.9805 -34.2344 115.451 -82.0791c19.9131 -46.5498 25.0508 -102.003 25.4902 -152.162c0.452148 -51.7227 -4.75586 -103.989 -16.7656 -154.317c-10.5967 -44.3887 -27.5342 -94.0293 -52.6016 -138.042
c30.4014 -9.05957 61.3887 -14.207 93.3252 -5.9375c16.9941 4.39941 15.3164 -20.2188 0.623047 -24.0479c-37.1152 -9.67383 -72.7627 -3.11328 -107.837 7.5625c-30.9395 -46.1582 -72.1895 -83.127 -126.245 -96.0947c-25.0254 -6 -53.5459 -5.99316 -77.6543 3.75391
c-10.791 4.36133 -20.6455 10.3203 -28.9785 18.415zM183.572 -37.5723c1.63574 1.43555 2.06543 2.01172 0 0zM134.89 -15.3164c-18.2646 -5.34082 -53.1924 -26.4463 -43.0508 -49.75c8.19922 -3.1416 16.6758 -6.10156 25.4326 -5.6875
c9.95312 0.467773 22.5586 4.77734 33.0059 9.78125c1.52832 0.732422 2.20996 0.993164 2.41016 0.996094c0.750977 0.496094 1.61719 1.06934 2.77539 1.82031c2.2793 1.48047 4.49805 3.03711 6.7168 4.60645c6.61133 4.67285 13.1689 9.39355 19.5225 14.416
c0.665039 0.525391 1.23828 1.0127 1.73828 1.44922c2.15527 2.13281 4.32617 4.25879 6.43652 6.43262c4.79395 4.93652 9.42188 10.0137 13.8047 15.3135c0.194336 0.238281 0.373047 0.486328 0.567383 0.724609c-22.9053 5.0957 -46.2979 6.63965 -69.3594 -0.102539z
" />
    <glyph glyph-name="three" unicode="3" horiz-adv-x="425" 
d="M66.2051 361.276c-36.8828 26.5215 -2.38574 81.8555 20.332 105.659c26.9229 28.1768 63.7295 47.832 102.589 52.6162c19.7451 2.42871 40.8906 1.44531 59.5879 -5.86621c18.4746 -7.22559 30.4971 -19.9424 42.5293 -35.1416
c30.5605 -38.6113 17.8857 -89.4297 -0.808594 -129.954c-3.20508 -6.95215 -6.83984 -14.0156 -10.8662 -21.0342c27.4512 -14.6484 51.0381 -38.4805 66.2656 -67.6094c31.9141 -61.0459 36.6631 -131.959 20.8809 -198.524
c-13.7666 -58.0723 -44.2383 -118.848 -94.6172 -153.423c-57.1396 -39.2158 -135.349 -49.6152 -184.432 7.30176c-45.4385 52.6934 -31.7578 127.14 -7.77344 185.731c8.39746 20.5088 51.0127 24.2236 49.8252 -3.80371
c-1.86816 -44.1338 -14.0879 -102.314 25.8887 -131.608c11.8701 -8.69336 25.207 -10.9824 39.0059 -5.87012c3.97559 1.47363 7.80176 3.27246 11.6084 5.13184c3.66406 2.29199 7.22559 4.7334 10.667 7.35352c1.83301 1.39062 3.56152 2.9502 5.41699 4.30273
c-0.608398 -0.445312 -5.74609 -5.51953 -1.41699 -1.38184c3.86426 3.69531 7.72852 7.39746 11.3633 11.3193c3.64746 3.9375 7.09473 8.05957 10.3701 12.3086c1.05664 1.375 2.08203 2.77246 3.10742 4.16992c0.0703125 0.118164 0.12793 0.210938 0.207031 0.341797
c5.24902 8.5625 10.084 17.2998 14.2598 26.4482c1.2793 2.80078 2.47266 5.63379 3.67871 8.4668c0.0380859 0.0888672 0.5 1.30469 0.926758 2.4248c0.416992 1.24805 1.08203 3.18359 1.11426 3.29492c0.65918 2.17383 1.3916 4.3291 2.05371 6.50293
c3.42188 11.2715 6.17871 22.7559 8.22852 34.3555c3.48242 19.6875 3.93457 42.8223 1.35645 64.8584c-1.02148 8.73438 -3.40527 18.917 -6.41602 28.7812c-1.875 6.14062 -4.00488 12.1982 -6.42676 18.1445c-0.582031 1.43262 -5.27344 11.8066 -3.34766 8.04102
c-9.82324 19.2002 -19.7002 32.0215 -36.9971 42.0264c0.204102 -0.181641 -3.19531 1.54395 -3.99414 1.83398c-2.2373 0.811523 -4.46582 1.5918 -6.72852 2.33008c-0.748047 0.242188 -1.27051 0.416992 -1.64941 0.550781
c-1.81445 0.235352 -3.64453 0.359375 -5.45215 0.591797c-0.0322266 0.00292969 -0.0449219 0.00585938 -0.0732422 0.00878906c-9.23438 -4.72363 -18.9844 -8.22168 -29.2275 -10.1123c-19.4873 -3.59668 -41.1934 6.29688 -47.626 25.7715
c-6.51562 19.7285 4.4502 43.2959 21.0312 54.5225c14.0977 9.54883 28.7881 15.6221 43.5703 18.751c6.72559 5.29688 10.8477 9.04297 16.1191 14.4736c12.7578 13.1396 24.5898 27.5244 33.6963 43.4531c9.51074 16.6377 19.2129 33.3398 18.541 53.1006
c-0.697266 20.5664 -15.6797 32.127 -34.3486 37.5986c-35.4092 10.3799 -75.7422 -2.56934 -104.498 -23.8994c-16.0303 -11.8887 -65.9795 -62.9619 -39.4609 -83.4229c12.9111 -9.96289 -5.80859 -29.7266 -18.0605 -20.916zM206.024 -35.25
c-1.44824 -0.84082 -4.8418 -3.00488 -0.560547 -0.363281c0.191406 0.114258 0.373047 0.245117 0.560547 0.363281zM199.372 251.449c0.582031 0.0830078 0.929688 0.0791016 1.0918 0.00585938c0.121094 0.0888672 0.277344 0.194336 0.416992 0.290039
c-0.505859 -0.0830078 -1.00586 -0.194336 -1.50879 -0.295898zM182.35 332.172c-1.24121 -0.34375 -2.18066 -0.764648 -1.94238 -1.23242c0.0322266 -0.0634766 0.802734 0.436523 1.94238 1.23242z" />
    <glyph glyph-name="four" unicode="4" horiz-adv-x="487" 
d="M82.3145 144.291c-23.7305 4.21484 -38.1455 24.3496 -30.0537 47.9463c8.13965 23.7207 31.4844 37.4717 52.9609 47.498c23.4941 10.9717 48.1406 19.4199 73.1279 26.3467c8.6709 21.9062 15.4893 44.6494 21.6641 67.2783
c17.1318 62.7803 25.5322 127.436 19.1816 192.419c-1.44824 14.8018 24.2334 21.0215 26.1016 4.40527c7.9541 -70.7988 -1.41406 -142.187 -20.2295 -210.604c-4.04883 -14.7246 -8.42285 -30.0098 -13.4902 -45.2246c28.2695 6.26758 56.8955 10.7617 85.6387 14.4473
c-0.929688 16.1543 -1.66797 32.3184 -2.12598 48.4854c-1.64844 58.085 -2.29785 115.715 8.05664 173.1c8.72852 48.3574 88.542 59.1416 94.6152 4.5293c5.66602 -50.9521 3.78809 -102.034 5.29688 -153.209c1.45508 -49.3984 3.68359 -98.7617 7.69434 -148.026
c4.09375 -50.2832 9.5752 -100.563 15.7412 -150.631c3.02734 -24.583 5.7334 -49.1729 8.51562 -73.7881c1.51172 -13.3818 2.09766 -27.1396 1.01855 -40.582c-0.694336 -8.62598 -0.929688 -16.46 -4.8418 -24.5039
c-1.97363 -4.05859 -13.0791 -21.1045 -3.94336 -6.05762c-7.46484 -12.293 -20.9482 -20.8525 -35.7402 -19.6494c-19.2861 1.57227 -28.5078 17.2559 -35.6953 32.9805c-10.8994 23.8477 -17.0137 50.1748 -22.5234 75.7285
c-11.8887 55.1309 -20.1934 111.093 -26.3174 167.128c-3.11328 28.4668 -5.79004 57.0156 -7.86816 85.6035c-33.5439 -4.37988 -66.9248 -9.87109 -99.7461 -18.042c-12.1465 -28.3896 -28.0361 -54.873 -50.7568 -74.9395
c-17.8281 -15.7432 -42.0869 -26.9346 -66.2812 -22.6377zM105.339 207.745c-7.88477 -4.34766 -30.0205 -17.4492 -21.4385 -29.2207c7.11133 -9.75977 26 -3.49902 34.0596 0.862305c20.0693 10.8545 33.9824 31.6338 44.6396 52.1143
c-19.7861 -6.29004 -39.3809 -13.8916 -57.2607 -23.7559z" />
    <glyph glyph-name="five" unicode="5" horiz-adv-x="441" 
d="M81.5254 190.783c8.02734 15.6895 33.1396 9.2666 25.6816 -9.09082c-24.8564 -61.1572 -34.6543 -184.602 52.8906 -201.281c31.0928 -5.92383 59.8262 7.26074 83.3779 24.9082c9.40332 7.04785 7.13379 4.89941 14.6016 12.7422
c5.11523 5.37305 9.9502 11.0928 14.3652 17.0674c0.621094 0.907227 2.25684 3.24023 2.4668 3.58398c2.47949 4.09668 4.88281 8.21875 7.08594 12.4746c1.4707 2.84277 2.7627 5.75879 4.18262 8.62402c0.608398 1.23145 1.06348 2.13184 1.45215 2.89258
c0.105469 0.359375 0.28418 0.894531 0.602539 1.76074c21.4385 58.3145 6.76074 123.654 -41.7334 160.413c-24.252 18.3828 -50.2988 27.5342 -80.6533 27.0117c-19.3115 -0.333984 -43.9355 -5.7832 -64.3867 1.09863
c-27.5176 9.25977 -35.7812 37.4111 -28.9375 63.3086c8.62012 32.6113 23.7334 64.0732 34.9414 95.8662c11.3096 32.0889 19.9805 65.1172 31.6465 97.0088c0.608398 1.6709 1.29883 3.30371 2.0625 4.88867c-18.8691 -0.869141 -37.041 1.7666 -51.499 12.2422
c-13.5889 9.8457 5.52539 29.1289 18.3506 21.251c20.1328 -12.3662 54.9746 -2.10352 76.6797 1.50293c25.9902 4.32617 51.8057 9.74707 77.9482 13.1309c36.2305 4.68848 96.5342 9.18262 100.532 -41.2979c1.32422 -16.7334 -27.9766 -23.8447 -29.5078 -4.97852
c-2.05664 25.3594 -37.8633 21.8838 -55.2275 20.21c-23.208 -2.23438 -46.1426 -6.56641 -69.0576 -10.752c-3.4248 -0.626953 -6.99316 -1.33984 -10.6729 -2.09766c0.573242 -1.16504 1.06934 -2.38086 1.41992 -3.69531
c9.55859 -35.9307 0.394531 -75.9834 -8.89648 -111.191c-4.67285 -17.7168 -9.82324 -35.3037 -14.8936 -52.9092c-1.40039 -4.86719 -2.75293 -9.74414 -4.13086 -14.6172c7.5918 0.410156 15.1963 0.674805 22.7852 0.324219
c19.3408 -0.894531 39.1426 -5.00391 57.4072 -11.3701c36.8828 -12.8506 69.834 -36.3232 94.2549 -66.7598c43.4746 -54.1768 56.3125 -133.146 33.9102 -198.661c-23.7012 -69.3027 -82.3818 -125.812 -152.951 -145.493
c-64.1582 -17.8926 -145.054 2.8418 -166.97 72.5488c-20.6006 65.5176 -10.084 138.841 20.8721 199.336zM141.935 339.966c-4.26172 -0.277344 -4.02051 -0.452148 0.700195 -0.515625c-0.235352 0.174805 -0.467773 0.34375 -0.700195 0.515625z" />
    <glyph glyph-name="six" unicode="6" horiz-adv-x="351" 
d="M109.703 -53.2461c-18.3633 15.1289 -30.6768 34.9209 -39.6436 56.7061c-17.5361 42.5996 -21.3721 93.79 -19.7041 139.461c3.4541 94.5029 29.6729 192.663 75.3916 275.583c22.0879 40.0596 48.8926 78.9922 85.1738 107.478
c16.8223 13.207 37.2988 25.6562 59.6826 20.4355c15.8516 -3.69238 26.8711 -13.5439 29.5225 -29.6504c2.28906 -13.9072 -19.6836 -19.4746 -25.582 -7.47461c-5.14062 10.46 -12.2549 -4.93359 -14.5273 -7.99902c-4.84766 -6.53516 -9.38379 -13.1182 -13.9199 -19.873
c-9.6416 -14.3594 -19.3633 -28.4863 -28.5527 -43.1543c-18.6689 -29.8066 -33.5566 -61.9082 -46.0977 -94.7295c-23.7461 -62.1465 -38.2295 -128.988 -39.083 -195.572c-0.0537109 -4.3291 -0.0566406 -8.65137 -0.00292969 -12.9707
c21.4287 9.81641 44.9229 14.7793 68.8438 12.6436c39.6553 -3.54297 75.9717 -28.7627 91.9189 -65.4385c32.7637 -75.3535 -43.8506 -163.096 -121.206 -156.911c-21.6064 1.72852 -45.2666 7.50293 -62.2139 21.4668zM259.308 80.8828
c-30.3633 44.7607 -83.1221 45.8145 -125.534 23.6025c1.5625 -19.7129 4.45898 -39.2861 9.14746 -58.6426c3.4375 -14.1934 8.21191 -28.9443 15.3584 -41.7119c5.60254 -10.0078 14.2988 -24.4365 23.1953 -31.8242c23.249 -19.3115 56.0098 2.44141 70.9834 21.3936
c20.4609 25.9014 25.9199 59.0664 6.84961 87.1826z" />
    <glyph glyph-name="seven" unicode="7" horiz-adv-x="386" 
d="M60.9785 490.304c-19.6367 2.12598 -10.1699 29.5957 6.78613 27.998c52.168 -4.93652 112.755 44.0449 162.555 14.1934c20.7539 -12.4395 34.7695 -41.0176 41.6104 -63.3154c8.75 -28.5273 9.3457 -60.7217 8.20898 -90.3115
c-1.55371 -40.4258 -3.91895 -80.7402 -7.11133 -121.007c23.0039 2.0625 46.7559 -0.381836 60.4111 -18.752c11.5322 -15.5117 -16.6318 -35.9473 -28.0049 -20.3467c-7.23828 9.9248 -22.5771 9.32031 -35.0615 7.96777
c-1.23145 -13.665 -2.5332 -27.3271 -3.95605 -40.9893c-7.10449 -68.2871 -13.3242 -136.893 -25.3369 -204.511c-4.38672 -24.6787 -30.6982 -42.7334 -54.3516 -43.8506c-20.9707 -0.990234 -47.6035 14.5498 -45.3018 39.0791
c5.85645 62.4463 16.0996 124.278 26.4512 186.119c2.55957 15.2881 5.16016 30.5635 7.83984 45.8232c-19.0537 -3.91211 -38.3818 -6.53223 -57.3311 -4.37695c-17.3252 1.9707 -11.5098 25.1943 2.95117 27.0117c20.4072 2.5625 40.3682 6.17188 60.2812 10.084
c6.22656 33.7441 12.9492 67.3896 20.6172 100.873c6.36621 27.7979 13.958 55.625 18.4395 83.7988c3.29785 20.7158 12.0137 64.0254 -7.94141 79.0557c-19.8721 14.9697 -52.2061 2.83301 -73.4092 -3.13867c-25.8721 -7.28906 -51.1904 -14.3496 -78.3457 -11.4053z" />
    <glyph glyph-name="eight" unicode="8" horiz-adv-x="378" 
d="M133.146 202.115c-34.6104 37.5225 -66.6055 80.2178 -78.2871 130.96c-12.3789 53.7686 -1.27637 113.471 35.3994 155.682c30.335 34.9121 76.2002 56.3467 122.915 51.5947c50.0508 -5.08984 75.1719 -44.9141 86.876 -89.9229
c12.9492 -49.79 8.70605 -102.811 0.697266 -153.043c-5.61133 -35.1953 -14.0215 -69.8115 -23.3926 -104.177c27.2412 -36.6348 48.1094 -76.2422 50.5059 -123.705c2.51172 -49.7041 -24.5889 -95.4805 -65.6602 -121.827
c-36.5137 -23.4209 -82.9453 -29.3037 -118.851 -0.862305c-39.1523 31.0166 -36.1631 79.9404 -25.5352 124.122c8.57227 35.6475 24.0449 69.8594 47.0742 98.3135c-10.7305 10.8223 -21.4258 21.6797 -31.7422 32.8652zM248.569 -25.2344
c30.835 32.7705 10.9805 84.5479 -11.6865 115.083c-16.0146 21.5752 -34.3301 41.1484 -53.1201 60.3135c-25.0283 -34.9473 -39.4541 -78.6699 -41.7207 -120.986c-1.47656 -27.623 9.52441 -52.2412 35.0244 -64.7988c22.1865 -10.9248 53.9287 -8.28613 71.5029 10.3887
zM143.089 448.023c-14.7314 -37.3154 3.50586 -86.7842 22.8691 -117.281c23.8506 -37.5605 57.1777 -71.7188 87.4199 -107.532c8.39062 33.9258 15.3525 68.1699 18.9717 102.913c3.11621 29.9277 4.24023 60.7021 -0.404297 90.5342
c-3.9502 25.3789 -12.3662 55.2432 -32.5312 72.7373c-33.1016 28.7178 -83.3281 -8.45117 -96.3252 -41.3711z" />
    <glyph glyph-name="nine" unicode="9" horiz-adv-x="413" 
d="M200.25 296.147c-31.8154 -31.9775 -89.6279 -64.457 -128.824 -24.127c-35.2275 36.2363 -19.9834 105.163 -3.98535 146.562c17.5898 45.5215 50.6367 91.7686 99.5039 106.306c40.8711 12.1592 90.4697 -5.3418 103.187 -48.8584
c4.49414 -15.3809 -21.2822 -27.7822 -27.1074 -11.4023c-7.69629 21.6357 -29.6787 33.3047 -51.8779 34.2021c-24.0293 0.973633 -45.458 -13.665 -60.877 -30.876c-33.4229 -37.3027 -57.2451 -102.092 -44.6777 -152.21
c7.30859 -29.1416 34.8555 -38.4141 60.9219 -25.4336c23.4814 11.6943 41.9053 34.1738 56.9268 55.0801c15.543 21.6328 28.6221 45.3281 40.915 68.9277c10.7051 20.5469 17.2236 50.5635 38.1904 63.1367c9.34277 5.60254 22.5557 7.83105 30.0039 -2.28809
c27.9893 -38.0186 32.7705 -93.4111 39.5 -138.783c7.2666 -48.9941 10.459 -99.1562 10.5605 -148.656c0.105469 -50.252 -3.09375 -101.755 -15.2217 -150.666c-12.5762 -50.7168 -33.0244 -101.688 -74.6816 -135.263
c-17.6787 -14.248 -45.5498 -14.9102 -61.9209 0.954102c-16.8613 16.3418 -12.625 42.6182 1.57812 59.2852c14.7373 17.2939 19.0986 22.502 28.5879 43.5771c6.9873 15.5117 11.8604 32.7578 16.8008 53.0918c10.084 41.5176 14.7217 83.4482 16.3516 126.083
c1.76953 46.2344 1.4707 92.4082 1.29883 138.658c-0.0859375 22.8105 -0.53125 45.6045 -0.731445 68.4082c-0.0478516 5.25488 0.19043 10.6631 0.467773 16.1289c-7.72559 -13.5537 -14.8398 -27.4414 -22.7432 -40.9023
c-14.8398 -25.2734 -31.4014 -50.0859 -52.1455 -70.9355z" />
    <glyph glyph-name="colon" unicode=":" horiz-adv-x="173" 
d="M84.7666 191.333c-15.7217 -3.23047 -35.8018 8.30176 -34.7227 26.0312c1.09473 18.0801 2.12305 42.6221 15.6006 56.3799c5.63379 5.75488 11.9043 9.65137 19.792 11.2715c5.50391 1.12988 15.3584 0.0478516 19.6934 -4.1377
c5.03613 -4.86426 8.50293 -8.5791 10.3428 -15.4834c1.23145 -4.625 2.0459 -9.75 2.42773 -14.4512c0.601562 -7.39453 0.397461 -14.7441 -0.0517578 -22.1357c-1.15527 -19.0381 -14.3076 -33.6162 -33.082 -37.4746zM121.355 88.4297
c2.2793 -7.26367 2.43945 -13.0283 1.46582 -20.4668c-0.229492 -1.27637 -0.395508 -2.5625 -0.580078 -3.84863c-0.015625 -0.232422 -0.0537109 -0.649414 -0.120117 -1.31152c-0.286133 -3.33887 -0.642578 -6.67188 -1.06641 -9.99805
c-0.0703125 -0.512695 -0.130859 -0.949219 -0.18457 -1.33398c-0.273438 -3.88672 -0.349609 -7.76074 -0.304688 -11.6572c0.229492 -19.627 -15.9854 -35.1162 -34.3262 -38.8877c-16.998 -3.49219 -36.1699 8.68359 -36.0361 27.0117
c0.0791016 10.877 0.566406 22.5713 3.59082 33.0791c4.35742 15.1387 10.6953 26.7666 22.8799 37.0195c13.417 11.2871 38.8945 8.83008 44.6816 -9.60645z" />
    <glyph glyph-name="semicolon" unicode=";" horiz-adv-x="198" 
d="M104.624 173.208c-13.3057 -0.745117 -23.5205 8.0752 -24.6855 21.2949c-0.859375 9.72754 0.133789 18.7744 1.15527 28.4443c1.12402 10.6572 1.33691 21.375 3.79785 31.8438c6.65625 28.3262 49.9463 34.2373 55.1445 2.6416
c3.0498 -18.5381 0.411133 -42.8027 -5.79297 -60.3291c-4.71777 -13.3281 -15.0566 -23.0811 -29.6191 -23.8955zM117.812 113.206c19.4102 -1.56934 35.1475 -20.4932 29.1504 -40.123c-12.3057 -40.2881 -23.7236 -82.3691 -43.7871 -119.545
c-4.40527 -8.16797 -12.9268 -13.999 -22.1582 -14.9766c-12.2393 -1.28906 -21.1426 3.19922 -26.541 14.3623c-8.74121 18.0732 -2.50879 44.7285 0.569336 63.5283c3.48535 21.2822 8.76953 41.998 15.5654 62.459c6.66504 20.0693 24.8721 36.0996 47.2012 34.2949z" />
    <glyph glyph-name="less" unicode="&#x3c;" horiz-adv-x="303" 
d="M230.674 143.663c20.5439 -7.15234 26.7344 -28.8721 20.0469 -47.7256c-7.13965 -20.1113 -29.1445 -34.709 -50.6113 -33c-34.4189 2.74414 -68.873 12.3799 -102.353 20.71c-36.0742 8.97656 -60.3232 40.6133 -40.8428 77.1621
c8.44141 15.8457 23.5264 26.3057 37.3857 37.0361c12.5537 9.72168 25.3057 19.0479 38.4326 27.9824c21.9697 14.9541 59.7305 48.2178 87.1592 30.8799c15.0596 -9.51758 5.7207 -31.249 -2.38965 -41.6924c-8.24121 -10.6123 -18.6562 -19.7764 -28.2529 -29.0967
c-8.68359 -8.43164 -17.208 -17.0225 -25.8535 -25.4932c2.50195 -0.573242 5.00098 -1.16895 7.50586 -1.73535c20.1201 -4.55176 40.2695 -8.2373 59.7725 -15.0273zM133.996 131.268c0.0126953 0.0576172 0.0263672 0.111328 0.0419922 0.165039
c-2.91602 -3.08398 -2.9541 -3.16309 -0.0419922 -0.165039z" />
    <glyph glyph-name="equal" unicode="=" horiz-adv-x="330" 
d="M64.2432 128.562c-22.667 10.377 -16.3174 41.0527 5.28027 49.2012c24.917 9.40332 51.1904 13.3057 77.6289 15.9922c28.1738 2.86523 55.4375 4.56152 83.0508 -2.4668c18.1406 -4.61523 22.5713 -25.8848 17.2109 -40.9824
c-6.4873 -18.2646 -24.7549 -28.4346 -43.4648 -28.3359c-23.6406 0.124023 -46.9121 0.181641 -70.5469 -0.831055c-23.584 -1.00879 -47.2119 -2.62598 -69.1592 7.42285zM268.715 104.905c23.6982 -16.457 6.10156 -47.8721 -13.9102 -57.3486
c-17.1533 -8.12598 -37.0029 -6.6875 -55.6211 -6.75391c-14.2607 -0.0507812 -28.4922 0.101562 -42.7461 -0.509766c-30.0264 -1.29199 -61.0137 -6.46484 -90.5781 0.821289c-11.3027 2.78516 -16.5547 15.4473 -15.667 25.7988
c1.13281 13.2354 10.5674 21.54 21.3896 27.54c28.2754 15.6699 64.3301 17.4941 95.9287 19.4453c30.6123 1.89062 74.5898 9.48828 101.204 -8.99316z" />
    <glyph glyph-name="greater" unicode="&#x3e;" horiz-adv-x="296" 
d="M243.676 179.953c13.3408 -39.3525 -26.8076 -60.2803 -54.5957 -75.9473c-25.1113 -14.1553 -50.5986 -27.3877 -76.5 -40.0469c-19.9102 -9.73438 -47.7461 -1.67773 -55.0039 20.2988c-7.84961 23.7617 9.8291 46.1836 30.1309 56.1084
c13.9482 6.82129 27.7881 13.8555 41.666 20.8135c-4.77441 2.61035 -9.53613 5.24609 -14.2441 7.9707c-21.1992 12.2705 -42.2559 23.9209 -59.2188 41.8477c-19.1973 20.2891 12.5957 54.7939 35.04 50.79c29.7051 -5.2998 56.9521 -19.4873 83.7383 -32.958
c23.2334 -11.6855 59.7822 -21.7246 68.9873 -48.877z" />
    <glyph glyph-name="question" unicode="?" horiz-adv-x="349" 
d="M230.338 558.316c57.1113 -30.5 67.9287 -91.7812 68.2148 -151.547c0.318359 -67.2939 -14.8838 -133.025 -27.2695 -198.791c-5.93652 -31.5156 -11.0488 -62.1084 -12.8379 -93.3955c-1.92871 -33.7471 0.0732422 -66.6064 2.83301 -100.227
c2.18652 -26.6396 -21.7217 -50.2236 -45.3311 -57.1152c-21.2285 -6.19434 -53.9473 0.703125 -59.5049 26.4893c-14.1328 65.6133 -3.56836 133.967 11.6279 198.517c12.5322 53.2148 29.5811 105.156 43.1025 158.091c12.2295 47.8838 31.2998 103.117 23.0303 153.12
c-4.44336 26.8721 -19.9932 43.8633 -47.9189 45.9609c-24.7803 1.8623 -48.459 -9.36719 -68.1309 -23.4648c-17.2363 -12.3506 -34.3613 -28.8896 -38.834 -50.4619c-3.8584 -18.6152 3.23633 -41.1553 21.374 -49.5938
c15.6572 -7.2832 1.39062 -30.3984 -12.6562 -24.2266c-23.4434 10.3037 -36.959 32.8369 -37.9805 58.2383c-1.08887 27.0566 13.6553 52.4414 32.4297 70.8711c37.1113 36.4238 97.7236 64.3047 147.852 37.5352zM232.348 -60.8418
c13.7129 0.652344 26.5225 -6.3252 31.2529 -19.6367c5.74219 -16.1572 1.30469 -36.4844 -0.563477 -52.9473c-2.16113 -19.0537 -24.5957 -33.0527 -41.9814 -33.874c-8.21582 -0.388672 -15.6611 1.4834 -22.5459 6.0127
c-6.80859 4.48145 -13.168 15.8389 -12.4521 24.1758c1.49902 17.4336 1.92285 37.5029 10.3359 53.3008c7.03809 13.2129 21.0791 22.2656 35.9541 22.9688z" />
    <glyph glyph-name="at" unicode="@" horiz-adv-x="651" 
d="M396.205 50.0098c-38.3086 14.7598 -49.9775 58.1221 -50.0508 95.3896c-0.015625 8.65527 0.461914 17.3701 1.28613 26.1016c-16.9785 -16.8545 -35.0361 -32.8242 -54.7334 -46.3076c-18.2236 -12.4775 -43.3477 -25.1016 -65.6895 -15.5654
c-28.6895 12.2422 -23.6475 48.9629 -14.0791 72.1836c10.7871 26.1807 28.9688 51.582 47.0938 73.2178c16.4316 19.6113 35.6572 38.3857 58.458 50.3828c31.5068 16.5771 77.6016 13.3174 97.1455 -15.3848c8.36816 -4.2207 14.7881 -12.3857 14.4443 -22.2441
c-1.25684 -36.2012 -8.83301 -72.8955 -5.38574 -109.129c1.18066 -12.4297 3.9248 -25.2031 11.4883 -32.8428c-0.84082 0.84375 0.579102 0.633789 1.53125 0.267578c1.41016 0.662109 3.28516 1.59473 3.57129 1.64258c1.90625 1.48633 7.69336 5.92676 6.73242 4.87305
c2.29785 2.17383 4.49121 4.66309 6.55078 6.9707c4.58691 5.1377 9.83887 11.7998 12.9424 16.501c7.48047 11.3291 15.0693 27.0693 20.9609 40.7217c12.2041 28.2754 20.3145 59.4668 23.7812 90.1074c6.19727 54.8037 -1.53418 113.249 -35.7969 155.441
c-31.0068 38.1816 -85.2881 48.5967 -130.501 34.6641c-28.5586 -8.79785 -47.8389 -20.0439 -71.2188 -36.9814c-9.71777 -7.04102 -19.2002 -14.5596 -28.1035 -22.626c-0.707031 -0.700195 -2.88477 -2.77539 -3.28906 -3.18555
c-2.25977 -2.28223 -4.56738 -4.51074 -6.80859 -6.8125c-4.47852 -4.59961 -8.84863 -9.31348 -13.0889 -14.1357c-18.9775 -21.5908 -28.7305 -35.5234 -41.8604 -59.2246c-13.207 -23.8418 -21.7158 -43.5801 -28.8428 -67.1855
c-28.04 -92.8643 -20.1201 -218.071 57.2959 -286.887c37.8818 -33.6709 84.4893 -51.5283 132.083 -42.3516c13.8242 2.66699 21.2471 5.37598 35.3545 11.6533c6.34668 2.82324 12.624 5.86621 18.707 9.22168c0.333984 0.18457 0.585938 0.324219 0.84668 0.463867
c0.37207 0.242188 0.999023 0.636719 2.07812 1.29883c3.00488 1.84277 5.99707 3.70215 8.9541 5.61816c24.5449 15.8965 47.6318 33.7188 69.9102 52.6299c15.126 12.8408 40.1416 12.8086 54.2236 -0.836914c13.5693 -13.1562 12.6113 -38.8633 -1.38477 -51.9199
c-62.8027 -58.5879 -134.187 -111.208 -223.501 -113.927c-78.9922 -2.40625 -154.97 42.2236 -199.508 106.076c-80.7041 115.702 -71.0781 276.503 -7.04395 397.161c64.6045 121.725 205.845 239.719 352.131 205.045
c71.1709 -16.8672 122.056 -79.1953 139.229 -148.297c18.8408 -75.8154 7.78613 -157.542 -21.2783 -229.257c-14.165 -34.9541 -33.6104 -69.8857 -60.8516 -96.3623c-29.4023 -28.5781 -72.1104 -52.2285 -113.783 -36.1699zM300.053 186.223
c27.5176 25.8369 48.3643 54.8682 69.0039 86.2285c2.54004 3.86133 5.52539 7.45801 8.90234 10.5361c-5.04199 2.61621 -10.6123 4.28711 -16.1416 4.80273c-17.6348 1.64551 -34.5498 -8.38086 -47.7148 -19.0537c-28.1865 -22.8486 -53.8203 -56.6846 -63.9297 -91.8164
c-1.15527 -4.02051 -6.41992 -22.6387 -1.50488 -25.8379c2.97656 -1.93848 8.8623 1.63574 11.2939 2.9502c14.5625 7.86523 28.0938 20.9219 40.0908 32.1904z" />
    <glyph glyph-name="A" unicode="A" horiz-adv-x="760" 
d="M-34.8135 80.9336c9.7627 18.8027 29.1924 30.3936 48.7715 36.6963c27.082 8.70605 56.3096 10.9951 84.4805 13.6367c31.0732 2.91211 62.2451 4.60254 93.4199 5.91699c37.0098 1.55957 74.0322 2.95703 111.055 4.28711
c46.8105 143.774 67.9014 296.592 107.64 442.388c0.0576172 2.20605 0.0898438 4.41211 0.15332 6.61816c0.853516 29.959 23.3359 53.1865 52.1816 59.1133c26.0918 5.36328 54.6191 -13.2354 54.7783 -41.0625c0.538086 -93.6943 0.694336 -187.396 2.06641 -281.084
c0.87207 -59.4668 1.11035 -119.061 3.29102 -178.543c21.0117 0.700195 42.0205 1.3877 63.0293 2.12012c8.36523 0.290039 13.2002 -8.74023 11.5957 -15.9629c-1.94824 -8.78223 -10.457 -13.3535 -18.7773 -13.6436
c-18.1943 -0.633789 -36.3926 -1.22949 -54.5869 -1.83789c0.674805 -13.7959 1.42969 -27.5879 2.39746 -41.3643c2.6416 -37.6719 5.37598 -76.7695 11.583 -113.569c5.58008 -33.0752 13.0859 -70.623 28.7178 -101.143
c5.97754 -11.6787 12.8311 -24.5166 24.252 -31.4014c11.7715 -7.09473 21.4863 4.66406 28.833 14.0801c22.4346 28.75 39.1494 63.7041 56.0996 95.8564c36.6348 69.4932 68.4561 141.371 100.239 213.172c6.19141 13.9893 29.0488 7.91895 22.3008 -7.8916
c-38.1719 -89.417 -76.4355 -179.075 -123.863 -264.083c-16.4658 -29.5137 -33.7402 -63 -61.8438 -83.3369c-31.8184 -23.0264 -72.5684 -21.5049 -103.012 3.83594c-32.1113 26.7285 -51.6328 71.3369 -62.751 110.632
c-11.7461 41.5137 -18.4844 84.6191 -23.001 127.464c-2.60352 24.6943 -4.59961 49.4434 -6.18457 74.2207c-31.459 -1.03418 -62.918 -2.11328 -94.373 -3.21484c-9.59668 -27.9062 -20.209 -55.4561 -32.1172 -82.4521
c-21.792 -49.4014 -47.0498 -103.03 -85.0469 -142.224c-38.6201 -39.8428 -91.1035 -43.9902 -135.136 -9.75c-42.1543 32.7832 -73.9502 79.0469 -97.4766 126.428c-11.7266 23.6123 -21.8555 50.793 -8.71582 76.0986zM348.9 194.721
c-4.8252 -17.4844 -9.99121 -34.8896 -15.4697 -52.1963c27.6387 0.964844 55.2773 1.91992 82.916 2.83301c-2.90918 56.6533 -3.94336 113.431 -5.07617 170.112c-0.983398 49.1689 -1.80176 98.3252 -1.9707 147.479
c-19.165 -89.6328 -35.9912 -179.816 -60.3994 -268.228zM96.1211 101.573c-24.1602 -2.48926 -49.8994 -4.19824 -73.2061 -11.4717c-23.7236 -7.4043 -36.9873 -21.1621 -28.5459 -47.209c7.70605 -23.7715 22.2627 -46.0312 37.2266 -65.8174
c14.4893 -19.1523 30.8213 -36.8438 49.1143 -52.4248c17.3545 -14.7793 38.6562 -30.8066 62.4082 -31.7363c45.9541 -1.80176 74.1377 54.9502 92.46 88.7129c22.8193 42.0518 41.4404 85.5967 57.2568 130.132c-36.0586 -1.30176 -72.1172 -2.6709 -108.163 -4.18945
c-29.5615 -1.24414 -59.1133 -2.96289 -88.5508 -5.99609z" />
    <glyph glyph-name="A" unicode="&#xc5;" horiz-adv-x="760" 
d="M-34.8135 80.9336c9.7627 18.8027 29.1924 30.3936 48.7715 36.6963c27.082 8.70605 56.3096 10.9951 84.4805 13.6367c31.0732 2.91211 62.2451 4.60254 93.4199 5.91699c37.0098 1.55957 74.0322 2.95703 111.055 4.28711
c46.8105 143.774 67.9014 296.592 107.64 442.388c0.0576172 2.20605 0.0898438 4.41211 0.15332 6.61816c0.853516 29.959 23.3359 53.1865 52.1816 59.1133c26.0918 5.36328 54.6191 -13.2354 54.7783 -41.0625c0.538086 -93.6943 0.694336 -187.396 2.06641 -281.084
c0.87207 -59.4668 1.11035 -119.061 3.29102 -178.543c21.0117 0.700195 42.0205 1.3877 63.0293 2.12012c8.36523 0.290039 13.2002 -8.74023 11.5957 -15.9629c-1.94824 -8.78223 -10.457 -13.3535 -18.7773 -13.6436
c-18.1943 -0.633789 -36.3926 -1.22949 -54.5869 -1.83789c0.674805 -13.7959 1.42969 -27.5879 2.39746 -41.3643c2.6416 -37.6719 5.37598 -76.7695 11.583 -113.569c5.58008 -33.0752 13.0859 -70.623 28.7178 -101.143
c5.97754 -11.6787 12.8311 -24.5166 24.252 -31.4014c11.7715 -7.09473 21.4863 4.66406 28.833 14.0801c22.4346 28.75 39.1494 63.7041 56.0996 95.8564c36.6348 69.4932 68.4561 141.371 100.239 213.172c6.19141 13.9893 29.0488 7.91895 22.3008 -7.8916
c-38.1719 -89.417 -76.4355 -179.075 -123.863 -264.083c-16.4658 -29.5137 -33.7402 -63 -61.8438 -83.3369c-31.8184 -23.0264 -72.5684 -21.5049 -103.012 3.83594c-32.1113 26.7285 -51.6328 71.3369 -62.751 110.632
c-11.7461 41.5137 -18.4844 84.6191 -23.001 127.464c-2.60352 24.6943 -4.59961 49.4434 -6.18457 74.2207c-31.459 -1.03418 -62.918 -2.11328 -94.373 -3.21484c-9.59668 -27.9062 -20.209 -55.4561 -32.1172 -82.4521
c-21.792 -49.4014 -47.0498 -103.03 -85.0469 -142.224c-38.6201 -39.8428 -91.1035 -43.9902 -135.136 -9.75c-42.1543 32.7832 -73.9502 79.0469 -97.4766 126.428c-11.7266 23.6123 -21.8555 50.793 -8.71582 76.0986zM348.9 194.721
c-4.8252 -17.4844 -9.99121 -34.8896 -15.4697 -52.1963c27.6387 0.964844 55.2773 1.91992 82.916 2.83301c-2.90918 56.6533 -3.94336 113.431 -5.07617 170.112c-0.983398 49.1689 -1.80176 98.3252 -1.9707 147.479
c-19.165 -89.6328 -35.9912 -179.816 -60.3994 -268.228zM96.1211 101.573c-24.1602 -2.48926 -49.8994 -4.19824 -73.2061 -11.4717c-23.7236 -7.4043 -36.9873 -21.1621 -28.5459 -47.209c7.70605 -23.7715 22.2627 -46.0312 37.2266 -65.8174
c14.4893 -19.1523 30.8213 -36.8438 49.1143 -52.4248c17.3545 -14.7793 38.6562 -30.8066 62.4082 -31.7363c45.9541 -1.80176 74.1377 54.9502 92.46 88.7129c22.8193 42.0518 41.4404 85.5967 57.2568 130.132c-36.0586 -1.30176 -72.1172 -2.6709 -108.163 -4.18945
c-29.5615 -1.24414 -59.1133 -2.96289 -88.5508 -5.99609z" />
    <glyph glyph-name="A" unicode="&#xc4;" horiz-adv-x="760" 
d="M-34.8135 80.9336c9.7627 18.8027 29.1924 30.3936 48.7715 36.6963c27.082 8.70605 56.3096 10.9951 84.4805 13.6367c31.0732 2.91211 62.2451 4.60254 93.4199 5.91699c37.0098 1.55957 74.0322 2.95703 111.055 4.28711
c46.8105 143.774 67.9014 296.592 107.64 442.388c0.0576172 2.20605 0.0898438 4.41211 0.15332 6.61816c0.853516 29.959 23.3359 53.1865 52.1816 59.1133c26.0918 5.36328 54.6191 -13.2354 54.7783 -41.0625c0.538086 -93.6943 0.694336 -187.396 2.06641 -281.084
c0.87207 -59.4668 1.11035 -119.061 3.29102 -178.543c21.0117 0.700195 42.0205 1.3877 63.0293 2.12012c8.36523 0.290039 13.2002 -8.74023 11.5957 -15.9629c-1.94824 -8.78223 -10.457 -13.3535 -18.7773 -13.6436
c-18.1943 -0.633789 -36.3926 -1.22949 -54.5869 -1.83789c0.674805 -13.7959 1.42969 -27.5879 2.39746 -41.3643c2.6416 -37.6719 5.37598 -76.7695 11.583 -113.569c5.58008 -33.0752 13.0859 -70.623 28.7178 -101.143
c5.97754 -11.6787 12.8311 -24.5166 24.252 -31.4014c11.7715 -7.09473 21.4863 4.66406 28.833 14.0801c22.4346 28.75 39.1494 63.7041 56.0996 95.8564c36.6348 69.4932 68.4561 141.371 100.239 213.172c6.19141 13.9893 29.0488 7.91895 22.3008 -7.8916
c-38.1719 -89.417 -76.4355 -179.075 -123.863 -264.083c-16.4658 -29.5137 -33.7402 -63 -61.8438 -83.3369c-31.8184 -23.0264 -72.5684 -21.5049 -103.012 3.83594c-32.1113 26.7285 -51.6328 71.3369 -62.751 110.632
c-11.7461 41.5137 -18.4844 84.6191 -23.001 127.464c-2.60352 24.6943 -4.59961 49.4434 -6.18457 74.2207c-31.459 -1.03418 -62.918 -2.11328 -94.373 -3.21484c-9.59668 -27.9062 -20.209 -55.4561 -32.1172 -82.4521
c-21.792 -49.4014 -47.0498 -103.03 -85.0469 -142.224c-38.6201 -39.8428 -91.1035 -43.9902 -135.136 -9.75c-42.1543 32.7832 -73.9502 79.0469 -97.4766 126.428c-11.7266 23.6123 -21.8555 50.793 -8.71582 76.0986zM348.9 194.721
c-4.8252 -17.4844 -9.99121 -34.8896 -15.4697 -52.1963c27.6387 0.964844 55.2773 1.91992 82.916 2.83301c-2.90918 56.6533 -3.94336 113.431 -5.07617 170.112c-0.983398 49.1689 -1.80176 98.3252 -1.9707 147.479
c-19.165 -89.6328 -35.9912 -179.816 -60.3994 -268.228zM96.1211 101.573c-24.1602 -2.48926 -49.8994 -4.19824 -73.2061 -11.4717c-23.7236 -7.4043 -36.9873 -21.1621 -28.5459 -47.209c7.70605 -23.7715 22.2627 -46.0312 37.2266 -65.8174
c14.4893 -19.1523 30.8213 -36.8438 49.1143 -52.4248c17.3545 -14.7793 38.6562 -30.8066 62.4082 -31.7363c45.9541 -1.80176 74.1377 54.9502 92.46 88.7129c22.8193 42.0518 41.4404 85.5967 57.2568 130.132c-36.0586 -1.30176 -72.1172 -2.6709 -108.163 -4.18945
c-29.5615 -1.24414 -59.1133 -2.96289 -88.5508 -5.99609z" />
    <glyph glyph-name="A" unicode="&#xc3;" horiz-adv-x="760" 
d="M-34.8135 80.9336c9.7627 18.8027 29.1924 30.3936 48.7715 36.6963c27.082 8.70605 56.3096 10.9951 84.4805 13.6367c31.0732 2.91211 62.2451 4.60254 93.4199 5.91699c37.0098 1.55957 74.0322 2.95703 111.055 4.28711
c46.8105 143.774 67.9014 296.592 107.64 442.388c0.0576172 2.20605 0.0898438 4.41211 0.15332 6.61816c0.853516 29.959 23.3359 53.1865 52.1816 59.1133c26.0918 5.36328 54.6191 -13.2354 54.7783 -41.0625c0.538086 -93.6943 0.694336 -187.396 2.06641 -281.084
c0.87207 -59.4668 1.11035 -119.061 3.29102 -178.543c21.0117 0.700195 42.0205 1.3877 63.0293 2.12012c8.36523 0.290039 13.2002 -8.74023 11.5957 -15.9629c-1.94824 -8.78223 -10.457 -13.3535 -18.7773 -13.6436
c-18.1943 -0.633789 -36.3926 -1.22949 -54.5869 -1.83789c0.674805 -13.7959 1.42969 -27.5879 2.39746 -41.3643c2.6416 -37.6719 5.37598 -76.7695 11.583 -113.569c5.58008 -33.0752 13.0859 -70.623 28.7178 -101.143
c5.97754 -11.6787 12.8311 -24.5166 24.252 -31.4014c11.7715 -7.09473 21.4863 4.66406 28.833 14.0801c22.4346 28.75 39.1494 63.7041 56.0996 95.8564c36.6348 69.4932 68.4561 141.371 100.239 213.172c6.19141 13.9893 29.0488 7.91895 22.3008 -7.8916
c-38.1719 -89.417 -76.4355 -179.075 -123.863 -264.083c-16.4658 -29.5137 -33.7402 -63 -61.8438 -83.3369c-31.8184 -23.0264 -72.5684 -21.5049 -103.012 3.83594c-32.1113 26.7285 -51.6328 71.3369 -62.751 110.632
c-11.7461 41.5137 -18.4844 84.6191 -23.001 127.464c-2.60352 24.6943 -4.59961 49.4434 -6.18457 74.2207c-31.459 -1.03418 -62.918 -2.11328 -94.373 -3.21484c-9.59668 -27.9062 -20.209 -55.4561 -32.1172 -82.4521
c-21.792 -49.4014 -47.0498 -103.03 -85.0469 -142.224c-38.6201 -39.8428 -91.1035 -43.9902 -135.136 -9.75c-42.1543 32.7832 -73.9502 79.0469 -97.4766 126.428c-11.7266 23.6123 -21.8555 50.793 -8.71582 76.0986zM348.9 194.721
c-4.8252 -17.4844 -9.99121 -34.8896 -15.4697 -52.1963c27.6387 0.964844 55.2773 1.91992 82.916 2.83301c-2.90918 56.6533 -3.94336 113.431 -5.07617 170.112c-0.983398 49.1689 -1.80176 98.3252 -1.9707 147.479
c-19.165 -89.6328 -35.9912 -179.816 -60.3994 -268.228zM96.1211 101.573c-24.1602 -2.48926 -49.8994 -4.19824 -73.2061 -11.4717c-23.7236 -7.4043 -36.9873 -21.1621 -28.5459 -47.209c7.70605 -23.7715 22.2627 -46.0312 37.2266 -65.8174
c14.4893 -19.1523 30.8213 -36.8438 49.1143 -52.4248c17.3545 -14.7793 38.6562 -30.8066 62.4082 -31.7363c45.9541 -1.80176 74.1377 54.9502 92.46 88.7129c22.8193 42.0518 41.4404 85.5967 57.2568 130.132c-36.0586 -1.30176 -72.1172 -2.6709 -108.163 -4.18945
c-29.5615 -1.24414 -59.1133 -2.96289 -88.5508 -5.99609z" />
    <glyph glyph-name="A" unicode="&#xc2;" horiz-adv-x="760" 
d="M-34.8135 80.9336c9.7627 18.8027 29.1924 30.3936 48.7715 36.6963c27.082 8.70605 56.3096 10.9951 84.4805 13.6367c31.0732 2.91211 62.2451 4.60254 93.4199 5.91699c37.0098 1.55957 74.0322 2.95703 111.055 4.28711
c46.8105 143.774 67.9014 296.592 107.64 442.388c0.0576172 2.20605 0.0898438 4.41211 0.15332 6.61816c0.853516 29.959 23.3359 53.1865 52.1816 59.1133c26.0918 5.36328 54.6191 -13.2354 54.7783 -41.0625c0.538086 -93.6943 0.694336 -187.396 2.06641 -281.084
c0.87207 -59.4668 1.11035 -119.061 3.29102 -178.543c21.0117 0.700195 42.0205 1.3877 63.0293 2.12012c8.36523 0.290039 13.2002 -8.74023 11.5957 -15.9629c-1.94824 -8.78223 -10.457 -13.3535 -18.7773 -13.6436
c-18.1943 -0.633789 -36.3926 -1.22949 -54.5869 -1.83789c0.674805 -13.7959 1.42969 -27.5879 2.39746 -41.3643c2.6416 -37.6719 5.37598 -76.7695 11.583 -113.569c5.58008 -33.0752 13.0859 -70.623 28.7178 -101.143
c5.97754 -11.6787 12.8311 -24.5166 24.252 -31.4014c11.7715 -7.09473 21.4863 4.66406 28.833 14.0801c22.4346 28.75 39.1494 63.7041 56.0996 95.8564c36.6348 69.4932 68.4561 141.371 100.239 213.172c6.19141 13.9893 29.0488 7.91895 22.3008 -7.8916
c-38.1719 -89.417 -76.4355 -179.075 -123.863 -264.083c-16.4658 -29.5137 -33.7402 -63 -61.8438 -83.3369c-31.8184 -23.0264 -72.5684 -21.5049 -103.012 3.83594c-32.1113 26.7285 -51.6328 71.3369 -62.751 110.632
c-11.7461 41.5137 -18.4844 84.6191 -23.001 127.464c-2.60352 24.6943 -4.59961 49.4434 -6.18457 74.2207c-31.459 -1.03418 -62.918 -2.11328 -94.373 -3.21484c-9.59668 -27.9062 -20.209 -55.4561 -32.1172 -82.4521
c-21.792 -49.4014 -47.0498 -103.03 -85.0469 -142.224c-38.6201 -39.8428 -91.1035 -43.9902 -135.136 -9.75c-42.1543 32.7832 -73.9502 79.0469 -97.4766 126.428c-11.7266 23.6123 -21.8555 50.793 -8.71582 76.0986zM348.9 194.721
c-4.8252 -17.4844 -9.99121 -34.8896 -15.4697 -52.1963c27.6387 0.964844 55.2773 1.91992 82.916 2.83301c-2.90918 56.6533 -3.94336 113.431 -5.07617 170.112c-0.983398 49.1689 -1.80176 98.3252 -1.9707 147.479
c-19.165 -89.6328 -35.9912 -179.816 -60.3994 -268.228zM96.1211 101.573c-24.1602 -2.48926 -49.8994 -4.19824 -73.2061 -11.4717c-23.7236 -7.4043 -36.9873 -21.1621 -28.5459 -47.209c7.70605 -23.7715 22.2627 -46.0312 37.2266 -65.8174
c14.4893 -19.1523 30.8213 -36.8438 49.1143 -52.4248c17.3545 -14.7793 38.6562 -30.8066 62.4082 -31.7363c45.9541 -1.80176 74.1377 54.9502 92.46 88.7129c22.8193 42.0518 41.4404 85.5967 57.2568 130.132c-36.0586 -1.30176 -72.1172 -2.6709 -108.163 -4.18945
c-29.5615 -1.24414 -59.1133 -2.96289 -88.5508 -5.99609z" />
    <glyph glyph-name="A" unicode="&#xc1;" horiz-adv-x="760" 
d="M-34.8135 80.9336c9.7627 18.8027 29.1924 30.3936 48.7715 36.6963c27.082 8.70605 56.3096 10.9951 84.4805 13.6367c31.0732 2.91211 62.2451 4.60254 93.4199 5.91699c37.0098 1.55957 74.0322 2.95703 111.055 4.28711
c46.8105 143.774 67.9014 296.592 107.64 442.388c0.0576172 2.20605 0.0898438 4.41211 0.15332 6.61816c0.853516 29.959 23.3359 53.1865 52.1816 59.1133c26.0918 5.36328 54.6191 -13.2354 54.7783 -41.0625c0.538086 -93.6943 0.694336 -187.396 2.06641 -281.084
c0.87207 -59.4668 1.11035 -119.061 3.29102 -178.543c21.0117 0.700195 42.0205 1.3877 63.0293 2.12012c8.36523 0.290039 13.2002 -8.74023 11.5957 -15.9629c-1.94824 -8.78223 -10.457 -13.3535 -18.7773 -13.6436
c-18.1943 -0.633789 -36.3926 -1.22949 -54.5869 -1.83789c0.674805 -13.7959 1.42969 -27.5879 2.39746 -41.3643c2.6416 -37.6719 5.37598 -76.7695 11.583 -113.569c5.58008 -33.0752 13.0859 -70.623 28.7178 -101.143
c5.97754 -11.6787 12.8311 -24.5166 24.252 -31.4014c11.7715 -7.09473 21.4863 4.66406 28.833 14.0801c22.4346 28.75 39.1494 63.7041 56.0996 95.8564c36.6348 69.4932 68.4561 141.371 100.239 213.172c6.19141 13.9893 29.0488 7.91895 22.3008 -7.8916
c-38.1719 -89.417 -76.4355 -179.075 -123.863 -264.083c-16.4658 -29.5137 -33.7402 -63 -61.8438 -83.3369c-31.8184 -23.0264 -72.5684 -21.5049 -103.012 3.83594c-32.1113 26.7285 -51.6328 71.3369 -62.751 110.632
c-11.7461 41.5137 -18.4844 84.6191 -23.001 127.464c-2.60352 24.6943 -4.59961 49.4434 -6.18457 74.2207c-31.459 -1.03418 -62.918 -2.11328 -94.373 -3.21484c-9.59668 -27.9062 -20.209 -55.4561 -32.1172 -82.4521
c-21.792 -49.4014 -47.0498 -103.03 -85.0469 -142.224c-38.6201 -39.8428 -91.1035 -43.9902 -135.136 -9.75c-42.1543 32.7832 -73.9502 79.0469 -97.4766 126.428c-11.7266 23.6123 -21.8555 50.793 -8.71582 76.0986zM348.9 194.721
c-4.8252 -17.4844 -9.99121 -34.8896 -15.4697 -52.1963c27.6387 0.964844 55.2773 1.91992 82.916 2.83301c-2.90918 56.6533 -3.94336 113.431 -5.07617 170.112c-0.983398 49.1689 -1.80176 98.3252 -1.9707 147.479
c-19.165 -89.6328 -35.9912 -179.816 -60.3994 -268.228zM96.1211 101.573c-24.1602 -2.48926 -49.8994 -4.19824 -73.2061 -11.4717c-23.7236 -7.4043 -36.9873 -21.1621 -28.5459 -47.209c7.70605 -23.7715 22.2627 -46.0312 37.2266 -65.8174
c14.4893 -19.1523 30.8213 -36.8438 49.1143 -52.4248c17.3545 -14.7793 38.6562 -30.8066 62.4082 -31.7363c45.9541 -1.80176 74.1377 54.9502 92.46 88.7129c22.8193 42.0518 41.4404 85.5967 57.2568 130.132c-36.0586 -1.30176 -72.1172 -2.6709 -108.163 -4.18945
c-29.5615 -1.24414 -59.1133 -2.96289 -88.5508 -5.99609z" />
    <glyph glyph-name="B" unicode="B" horiz-adv-x="543" 
d="M-113.833 -8.40918c9.61328 -1.27637 19.3242 -2.13281 28.9854 -3.02051c16.4375 -1.49316 32.9072 -2.62598 49.3955 -3.40234c12.8633 -0.604492 25.7354 -0.951172 38.6074 -1.0625c-3.70215 21.667 -6.63086 43.6338 -8.9707 65.2695
c-6.28711 58.1582 -10.6953 116.781 -12.5195 175.252c-3.68945 118.214 -4.6123 237.937 7.6875 355.677c3.03027 29.0049 20.751 50.9209 50.3125 56.9971c25.0986 5.16016 52.7471 -12.7539 52.8174 -39.5908c0.305664 -116.403 -7.48633 -232.587 -5.8252 -349.05
c0.366211 -25.7607 0.795898 -51.5117 1.44238 -77.2568c2.75 18.3057 5.56738 36.6025 8.51172 54.8799c13.7637 85.4658 25.9551 173.033 54.6758 255.039c22.5967 64.5244 57.3115 135.157 123.284 164.512c33.3271 14.8301 65.2441 3.59668 76.5762 -32.3721
c10.6543 -33.8145 0.395508 -77.2324 -9.76465 -110.102c-17.583 -56.8721 -50.3662 -111.274 -89.9834 -157.433c1.95801 -1.62012 3.90332 -3.24707 5.83594 -4.85742c13.8496 -11.5391 27.4033 -23.4404 40.4385 -35.8926
c27.2031 -25.9873 53.04 -53.6006 74.0801 -84.8965c31.4365 -46.7598 52.0566 -100.369 56.2109 -155.866c48.1123 19.417 94.2578 43.4395 133.295 78.2559c15.3838 13.7188 31.127 -8.82715 16.1758 -22.2666c-43.1465 -38.7734 -95.2383 -65.1172 -148.887 -86.3711
c-0.414062 -11.5264 -1.55371 -23.0938 -3.49902 -34.6611c-22.1992 -131.942 -154.502 -204.943 -277.118 -219.624c-70.3564 -8.42578 -146.936 -2.60059 -211.606 28.3457c-28.9277 13.8438 -56.0479 30.8984 -79.4082 52.9863
c-22.4824 21.2539 -47.333 46.7822 -50.6211 79.1133c-3.24316 31.8887 20.4395 62.707 54.3018 57.5156c8.75 -1.34375 16.7871 -4.9502 25.5693 -6.11816zM114.207 168.332c-7.26074 -47.5938 -13.8242 -95.291 -19.5791 -143.085
c0.629883 -12.6084 1.23438 -25.2139 1.74023 -37.8125c27.4443 2.16406 54.8154 5.33398 82.0342 9.4502c54.6094 8.25684 108.604 20.4609 161.422 36.5771c-0.0126953 1.06934 0.0195312 2.13867 -0.00878906 3.20801c-1.47656 53.9795 -24.376 103.314 -56.5605 145.793
c-16.8389 22.2246 -35.8232 42.5996 -56.3604 61.418c-11.2969 10.3516 -22.9219 20.3398 -34.7539 30.0703c-8.83594 7.27051 -19.3594 17.5205 -27.1133 20.1436c-13.7734 4.65723 -22.7852 17.5938 -23.2275 31.9688c-0.515625 16.7305 9.13867 28.5361 20.7764 39.0596
c27.0186 24.4307 51.334 44.6875 76.0381 73.2754c22.9346 26.541 43.9336 55.0713 59.4863 86.6035c7.15918 14.5146 13.0449 29.5547 17.4219 45.1426c4.14453 14.7725 10.4248 35.9561 -0.955078 49.0518c-22.1826 25.5312 -68.7197 -20.9385 -82.7256 -37.7998
c-44.0479 -53.0332 -63.7705 -125.169 -78.5146 -191.133c-16.3672 -73.2275 -27.8105 -147.788 -39.1201 -221.932zM9.20898 -47.4844c-30.166 -0.34375 -60.3555 0.182617 -90.4648 1.99414c-17.6436 1.06641 -35.959 4.51074 -53.5996 3.71191
c-2.20312 -0.0986328 -4.50098 -0.550781 -6.69434 -0.543945c-0.238281 0 -0.407227 -0.0351562 -0.617188 -0.0478516c1.62695 -2.01855 3.55566 -5.28418 4.53613 -6.44922c75.2617 -89.248 194.739 -111.393 305.336 -89.6553
c25.6621 5.04492 41.8994 9.94336 67.1729 21.2051c6.38574 2.8457 12.625 5.95898 18.8291 9.17383c0.515625 0.267578 0.897461 0.461914 1.21875 0.624023c0.101562 0.0605469 0.167969 0.101562 0.279297 0.167969c2.63281 1.56934 5.24316 3.1709 7.82422 4.82324
c9.64453 6.16602 18.6436 13.0508 27.4961 20.292c0.958008 0.783203 1.63965 1.32129 2.20605 1.75781c0.474609 0.543945 1.06348 1.20898 1.93555 2.1543c2.03418 2.20312 4.18262 4.29785 6.20703 6.51367c3.54004 3.87402 6.91699 7.89453 10.1387 12.0361
c0.34082 0.439453 2.12988 2.84863 3.22852 4.2998c0.999023 1.53711 2.61621 3.97266 2.90234 4.44043c3.18945 5.18848 6.13379 10.501 8.80469 15.9756c5.62109 11.5264 9.37695 24.2393 11.5762 37.4902c-45.3525 -13.6777 -91.5303 -24.6816 -138.166 -32.7734
c-33.8682 -5.87305 -67.9941 -10.1641 -102.244 -13.0254c0.0791016 -3.44727 0.174805 -6.89746 0.308594 -10.3447c0.5 -12.9072 -0.245117 -27.0303 1.3623 -39.4287c3.71777 -28.6641 -38.834 -44.541 -56.4521 -24.0039
c-5.05469 5.88867 -10.084 9.86719 -13.9893 16.6572c-3.78125 6.57324 -7.06641 13.7734 -9.8584 20.834c-4.07129 10.2939 -6.90137 21.2441 -9.27637 32.1211z" />
    <glyph glyph-name="C" unicode="C" 
d="M231.539 330.616c8.62012 33.4453 14.4053 67.6484 17.458 102.045c2.92188 32.9453 4.37305 66.5303 1.89062 99.5518c-1.31152 17.4531 -8.06934 79.4473 -37.6309 70.9229c-8.85254 -2.55273 -14.4385 -11.5518 -20.127 -18.1504
c-7.24121 -8.39746 -15.8389 -19.1113 -20.6035 -26.4199c-15.1709 -23.2783 -27.2344 -48.3545 -38.7188 -73.6064c-23.1885 -50.9902 -39.5371 -105.029 -50.8496 -160.26c-11.5801 -56.5225 -17.1279 -113.945 -18.1719 -171.604
c-1.02832 -56.7451 1.60059 -114.365 14.1807 -169.879c9.98242 -44.0537 26.0186 -106.076 69.7227 -129.014c49.6279 -26.0439 99.1631 26.0225 128.282 60.7344c65.1426 77.6553 97.3525 176.669 152.022 261.133c8.21875 12.6943 32.0889 6.85645 22.6797 -8.02441
c-68.8633 -108.903 -105.186 -255.059 -218.418 -329.495c-26.0762 -17.1406 -56.1816 -32.292 -87.8662 -33.2373c-31.4111 -0.939453 -62.6982 11.5986 -86.6445 31.6396c-54.0684 45.251 -71.5342 126.144 -79.9092 192.756
c-17.5098 139.245 -1.22168 287.801 46.8467 419.636c24.5293 67.2783 55.3516 137.335 114.389 181.644c25.2295 18.9365 65.4033 31.0039 94.7646 14.5215c26.0664 -14.6328 37.2646 -45.6299 41.8799 -73.5205c5.5 -33.2217 3.62207 -68.5635 1.90039 -102.056
c-1.78906 -34.7598 -5.85059 -69.4941 -12.627 -103.643c-9.60645 -48.4023 -24.9805 -142.867 -92.4053 -137.446c-18.7324 1.50879 -9.81055 28.5527 6.49609 26.7793c35.667 -3.87402 44.9492 49.7354 51.459 74.9932z" />
    <glyph glyph-name="D" unicode="D" horiz-adv-x="575" 
d="M339.029 620.154c23.6445 28.5879 61.8984 47.4062 88.5088 11.6982c25.8848 -34.7344 40.374 -82.2393 51.1045 -123.654c23.5391 -90.8428 22.0049 -184.62 12.0645 -277.271c-5.34473 -49.8408 -14.1553 -100.707 -29.5361 -149.186
c46.833 17.3379 90.3457 43.3975 126.941 77.7715c5.67871 5.33496 14.5312 9.33594 21.7598 3.93066c6.20996 -4.64453 6.44238 -15.0244 0.801758 -20.3398c-46.3203 -43.6533 -101.589 -75.9717 -161.619 -95.3789
c-9.17676 -23.1416 -20.0664 -45.5352 -33.1709 -66.7188c-52.1299 -84.25 -138.252 -153.308 -237.38 -171.378c-88.1016 -16.0615 -192.253 17.0303 -219.366 111.187c-21.6133 75.0508 26.9453 165.34 108.891 172.088c1.33984 0.111328 2.67676 0.139648 4.0166 0.21582
c-8.43555 51.8242 -11.3291 104.266 -13.0762 156.71c-3.68945 110.626 0.658203 222.837 14.96 332.625c3.12598 24.001 30.4688 41.1387 52.5186 42.374c20.8682 1.1709 45.2256 -14.165 43.7773 -37.7617c-6.37891 -103.864 -13.8301 -207.137 -13.2285 -311.311
c0.321289 -55.3984 3.25586 -110.311 8.22168 -165.076c12.71 75.4746 29.2012 150.29 50.4131 223.867c14.6387 50.7734 31.5596 100.866 50.7285 150.108c18.6016 47.7852 39.7188 95.6562 72.6699 135.499zM310.798 516.506
c-62.2578 -139.436 -99.374 -291.064 -122.646 -442.319c8.19629 -1.99609 16.3545 -3.87695 24.4521 -5.46191c46.1963 -9.04004 93.6182 -14.7568 140.712 -10.8955c0.467773 0.973633 0.970703 1.92188 1.42871 2.90234c14.6172 31.1367 24.4111 62.4678 33.2129 100.025
c8.76953 37.4336 15.3682 75.4141 20.5244 113.503c11.1982 82.7354 16.8262 168.052 9.05664 251.344c-1.66797 17.8887 -7.43555 114.754 -41.0391 92.5293c-17.0898 -11.3066 -30.4365 -34.9414 -40.5332 -52.0986
c-9.39941 -15.9727 -17.6152 -32.6104 -25.1689 -49.5283zM326.137 9.54102c0.432617 0.68457 0.980469 1.54785 1.66504 2.63281c3.15137 4.98145 6.18457 10.0176 9.16113 15.082c-29.7012 -1.42969 -59.5234 0.0722656 -89.0723 3.94336
c-21.6836 2.84277 -43.0166 7.39453 -64.2891 12.1914c-1.77344 -12.4941 -3.4668 -24.9814 -5.06836 -37.4492c-0.171875 -1.33008 -0.522461 -2.54004 -0.99707 -3.66016c0.821289 -6.07324 1.66211 -12.1494 2.52148 -18.2256
c3.0459 -21.5176 -25.0039 -37.4717 -43.167 -31.3633c-25.1055 8.44434 -37.0547 38.2734 -45.6621 60.9756c-5.82812 15.374 -9.9502 31.0479 -13.2832 46.96c-25.8242 -1.84277 -49.4365 -13.1455 -58.1934 -41.0195
c-8.83008 -28.1104 -1.34668 -55.4727 17.4463 -77.4805c9.04297 -10.5898 23.542 -19.916 37.5098 -27.7559c1.84961 -1.03418 2.92188 -1.67676 3.56445 -2.09082c0.722656 -0.273438 1.65234 -0.642578 2.98926 -1.19043
c2.82617 -1.1582 5.60547 -2.38672 8.4668 -3.45605c8.81445 -3.29785 15.6904 -5.22656 21.4482 -5.95508c38.334 -4.84473 72.0557 1.8457 105.08 16.1064c21.2539 9.17676 24.876 11.1562 43.8604 24.5479c8.0791 5.69727 15.8018 11.8213 23.3555 18.1943
c1.05078 0.884766 1.62695 1.33984 1.91699 1.54004c0.477539 0.477539 0.977539 0.973633 1.59863 1.58496c3.83887 3.78809 7.64551 7.5918 11.3184 11.542c6.91016 7.42969 13.4678 15.1865 19.6523 23.2305c2.80469 3.64453 5.54199 7.34668 8.17773 11.1152z" />
    <glyph glyph-name="E" unicode="E" 
d="M-30.4502 -3.45605c-10.5518 94.4238 10.7627 206.729 80.4854 274.675c-2.77246 5.64062 -5.33496 11.3164 -7.71289 16.8232c-16.6543 38.5791 -21.7314 82.6426 -17.498 124.221c5.64648 55.4619 23.6914 111.255 55.1846 157.585
c16.1895 23.8164 35.0049 45.3848 57.4072 63.6016c3.02051 2.45703 6.12402 4.80273 9.30371 7.05664c1.96387 1.39062 3.9502 2.75586 5.97461 4.06055c1.27051 0.818359 2.54102 1.64258 3.83008 2.43164c0.0986328 0.0605469 16.5039 9.57812 7.08203 4.06543
c-9.80762 -5.73926 10.1982 5.78711 13.4961 7.41016c2.30176 1.13281 4.625 2.27832 7.00293 3.23926c7.87207 3.18652 16.3457 5.38281 24.752 6.64648c15.709 2.36523 31.8477 2.15527 47.123 -2.49512c32.9863 -10.043 55.4209 -45.9482 66.6035 -78.5908
c12.8184 -37.4238 16.6631 -79.6416 17.793 -118.937c0.655273 -22.7783 -0.194336 -45.5723 -2.7627 -68.2139c-2.11719 -18.6787 -3.60059 -43.6123 -12.8223 -60.4131c-12.7041 -23.1416 -44.7705 -0.860352 -60.043 7.01758
c-15.1162 7.7959 -30.3027 15.4229 -46.2246 21.4648c-12.3184 4.67578 -26.5596 10.1152 -39.8652 7.01172c-18.6562 -4.35156 -17.335 22.9912 -0.68457 26.4385c29.7969 6.16602 61.3223 -12.4355 86.8789 -25.1582c12.624 -6.2832 25.0254 -13.292 38.0479 -18.7314
c0.222656 -0.0927734 0.480469 -0.185547 0.760742 -0.27832c0.15918 0.474609 0.308594 0.926758 0.404297 1.31152c1.21875 4.89551 2.28223 9.82617 3.22168 14.7822c7.49023 39.5371 7.50977 80.7324 3.72852 120.687
c-3.10352 32.8018 -8.74414 71.3457 -27.4766 99.4336c-7.24512 10.8604 -17.0488 21.8486 -30.583 22.998c-3.10645 0.264648 -2.60352 0.331055 -6.29883 -0.0986328c-0.939453 -0.108398 -4.4375 -0.849609 -5.72949 -1.0752
c-1.16211 -0.477539 -4.49512 -1.69043 -5.33594 -2.05371c-1.78223 -0.776367 -4.16016 -2.1416 -5.06445 -2.64746c-7.81445 -5.29688 -15.209 -11.1504 -22.8389 -16.708c3.92188 1.97656 -7.27344 -5.80273 -8.02832 -6.47461
c-0.152344 -0.139648 -0.331055 -0.318359 -0.493164 -0.477539c0.875 0.999023 0.804688 1.16504 -1.57324 -1.33691c-0.588867 -0.617188 -1.19727 -1.22168 -1.80566 -1.82324c-0.401367 -0.308594 -0.798828 -0.588867 -1.19043 -0.776367
c0.34082 0.166016 0.716797 0.408203 1.10547 0.691406c-0.518555 -0.515625 -1.03418 -1.03125 -1.54004 -1.55957c-50.4648 -52.8047 -83.4033 -128.343 -77.0977 -201.752c0.298828 -3.47266 0.71582 -6.92676 1.16113 -10.3809
c0.0703125 -0.295898 0.678711 -4.31934 1.09863 -6.27344c1.39453 -6.48047 3.08496 -12.9004 5.08691 -19.2188c1.91895 -6.06348 4.11816 -12.041 6.59766 -17.8975c1.02539 -2.41895 2.14941 -4.78711 3.21582 -7.1875
c5.12793 -8.42578 9.8584 -17.1855 16.5781 -24.5098c19.8652 -21.6582 -0.0869141 -50.4463 -19.3701 -64.293c2.35254 1.39453 3.60938 2.01562 0.280273 -0.37793c-2.53418 -1.82031 -5.20117 -3.44336 -7.71582 -5.29883
c-3.22168 -2.37793 -6.22363 -5.00098 -9.29492 -7.54395c-0.212891 -0.207031 -0.432617 -0.404297 -0.636719 -0.617188c-2.21582 -2.33301 -4.46973 -4.62207 -6.63086 -7.00977c-5.28125 -5.83105 -10.0596 -11.9873 -14.8154 -18.248
c-0.191406 -0.250977 -0.328125 -0.425781 -0.477539 -0.617188c-0.318359 -0.576172 -0.760742 -1.35254 -1.40723 -2.4541c-2.25 -3.83594 -4.53516 -7.63672 -6.63281 -11.5615c-2.22852 -4.16992 -4.31055 -8.41602 -6.27734 -12.7129
c-1.41016 -3.07812 -2.73438 -6.19141 -4.01758 -9.32324c-3.7334 -10.5898 -6.71875 -21.4346 -9.05859 -32.416c-2.19629 -10.3066 -3.70508 -20.709 -5.0957 -31.1465c-0.222656 -1.6709 -0.435547 -2.67969 -0.623047 -3.24316
c-0.0283203 -1.41309 -0.00878906 -2.71191 -0.0566406 -3.22168c-0.445312 -4.89551 -0.821289 -9.79785 -1.12402 -14.7061c-1.51562 -24.5576 -1.6748 -49.4941 0.604492 -74.0039c0.512695 -5.5 1.22266 -10.9688 1.98633 -16.4375
c0.0703125 -0.229492 0.777344 -4.60645 1.21387 -6.82812c0.598633 -3.04004 1.19434 -6.08008 1.85352 -9.10742c2.83301 -13 6.66895 -25.7959 11.8643 -38.0537c2.55273 -6.01953 5.38281 -11.9082 7.94531 -17.9277
c0.359375 -0.84375 0.566406 -1.36914 0.6875 -1.7002c0.178711 -0.298828 0.385742 -0.655273 0.668945 -1.1582c1.75391 -3.10059 3.54883 -6.17578 5.49023 -9.16504c7.55664 -11.6377 14.4414 -19.4199 23.5264 -26.8936
c10.4854 -8.62891 21.9922 -15.3613 34.6191 -20.3301c23.332 -9.17676 42.6025 -4.51953 63.6748 8.41309c37.1943 22.832 66.9756 57.6143 91.0498 93.5479c47.9316 71.5469 78.3496 153.098 125.103 225.38c8.21875 12.7041 32.0918 6.85059 22.6797 -8.02441
c-56.8057 -89.7695 -89.3369 -194.863 -159.604 -276.042c-32.0664 -37.0449 -71.1768 -69.1211 -120.05 -79.2627c-37.8408 -7.85254 -79.0107 0.614258 -112.535 19.3086c-59.9219 33.4131 -81.8916 100.188 -89.0791 164.493zM310.391 354.504
c1.92285 -1.53711 0.0957031 1.30176 0 0z" />
    <glyph glyph-name="E" unicode="&#xcb;" 
d="M-30.4502 -3.45605c-10.5518 94.4238 10.7627 206.729 80.4854 274.675c-2.77246 5.64062 -5.33496 11.3164 -7.71289 16.8232c-16.6543 38.5791 -21.7314 82.6426 -17.498 124.221c5.64648 55.4619 23.6914 111.255 55.1846 157.585
c16.1895 23.8164 35.0049 45.3848 57.4072 63.6016c3.02051 2.45703 6.12402 4.80273 9.30371 7.05664c1.96387 1.39062 3.9502 2.75586 5.97461 4.06055c1.27051 0.818359 2.54102 1.64258 3.83008 2.43164c0.0986328 0.0605469 16.5039 9.57812 7.08203 4.06543
c-9.80762 -5.73926 10.1982 5.78711 13.4961 7.41016c2.30176 1.13281 4.625 2.27832 7.00293 3.23926c7.87207 3.18652 16.3457 5.38281 24.752 6.64648c15.709 2.36523 31.8477 2.15527 47.123 -2.49512c32.9863 -10.043 55.4209 -45.9482 66.6035 -78.5908
c12.8184 -37.4238 16.6631 -79.6416 17.793 -118.937c0.655273 -22.7783 -0.194336 -45.5723 -2.7627 -68.2139c-2.11719 -18.6787 -3.60059 -43.6123 -12.8223 -60.4131c-12.7041 -23.1416 -44.7705 -0.860352 -60.043 7.01758
c-15.1162 7.7959 -30.3027 15.4229 -46.2246 21.4648c-12.3184 4.67578 -26.5596 10.1152 -39.8652 7.01172c-18.6562 -4.35156 -17.335 22.9912 -0.68457 26.4385c29.7969 6.16602 61.3223 -12.4355 86.8789 -25.1582c12.624 -6.2832 25.0254 -13.292 38.0479 -18.7314
c0.222656 -0.0927734 0.480469 -0.185547 0.760742 -0.27832c0.15918 0.474609 0.308594 0.926758 0.404297 1.31152c1.21875 4.89551 2.28223 9.82617 3.22168 14.7822c7.49023 39.5371 7.50977 80.7324 3.72852 120.687
c-3.10352 32.8018 -8.74414 71.3457 -27.4766 99.4336c-7.24512 10.8604 -17.0488 21.8486 -30.583 22.998c-3.10645 0.264648 -2.60352 0.331055 -6.29883 -0.0986328c-0.939453 -0.108398 -4.4375 -0.849609 -5.72949 -1.0752
c-1.16211 -0.477539 -4.49512 -1.69043 -5.33594 -2.05371c-1.78223 -0.776367 -4.16016 -2.1416 -5.06445 -2.64746c-7.81445 -5.29688 -15.209 -11.1504 -22.8389 -16.708c3.92188 1.97656 -7.27344 -5.80273 -8.02832 -6.47461
c-0.152344 -0.139648 -0.331055 -0.318359 -0.493164 -0.477539c0.875 0.999023 0.804688 1.16504 -1.57324 -1.33691c-0.588867 -0.617188 -1.19727 -1.22168 -1.80566 -1.82324c-0.401367 -0.308594 -0.798828 -0.588867 -1.19043 -0.776367
c0.34082 0.166016 0.716797 0.408203 1.10547 0.691406c-0.518555 -0.515625 -1.03418 -1.03125 -1.54004 -1.55957c-50.4648 -52.8047 -83.4033 -128.343 -77.0977 -201.752c0.298828 -3.47266 0.71582 -6.92676 1.16113 -10.3809
c0.0703125 -0.295898 0.678711 -4.31934 1.09863 -6.27344c1.39453 -6.48047 3.08496 -12.9004 5.08691 -19.2188c1.91895 -6.06348 4.11816 -12.041 6.59766 -17.8975c1.02539 -2.41895 2.14941 -4.78711 3.21582 -7.1875
c5.12793 -8.42578 9.8584 -17.1855 16.5781 -24.5098c19.8652 -21.6582 -0.0869141 -50.4463 -19.3701 -64.293c2.35254 1.39453 3.60938 2.01562 0.280273 -0.37793c-2.53418 -1.82031 -5.20117 -3.44336 -7.71582 -5.29883
c-3.22168 -2.37793 -6.22363 -5.00098 -9.29492 -7.54395c-0.212891 -0.207031 -0.432617 -0.404297 -0.636719 -0.617188c-2.21582 -2.33301 -4.46973 -4.62207 -6.63086 -7.00977c-5.28125 -5.83105 -10.0596 -11.9873 -14.8154 -18.248
c-0.191406 -0.250977 -0.328125 -0.425781 -0.477539 -0.617188c-0.318359 -0.576172 -0.760742 -1.35254 -1.40723 -2.4541c-2.25 -3.83594 -4.53516 -7.63672 -6.63281 -11.5615c-2.22852 -4.16992 -4.31055 -8.41602 -6.27734 -12.7129
c-1.41016 -3.07812 -2.73438 -6.19141 -4.01758 -9.32324c-3.7334 -10.5898 -6.71875 -21.4346 -9.05859 -32.416c-2.19629 -10.3066 -3.70508 -20.709 -5.0957 -31.1465c-0.222656 -1.6709 -0.435547 -2.67969 -0.623047 -3.24316
c-0.0283203 -1.41309 -0.00878906 -2.71191 -0.0566406 -3.22168c-0.445312 -4.89551 -0.821289 -9.79785 -1.12402 -14.7061c-1.51562 -24.5576 -1.6748 -49.4941 0.604492 -74.0039c0.512695 -5.5 1.22266 -10.9688 1.98633 -16.4375
c0.0703125 -0.229492 0.777344 -4.60645 1.21387 -6.82812c0.598633 -3.04004 1.19434 -6.08008 1.85352 -9.10742c2.83301 -13 6.66895 -25.7959 11.8643 -38.0537c2.55273 -6.01953 5.38281 -11.9082 7.94531 -17.9277
c0.359375 -0.84375 0.566406 -1.36914 0.6875 -1.7002c0.178711 -0.298828 0.385742 -0.655273 0.668945 -1.1582c1.75391 -3.10059 3.54883 -6.17578 5.49023 -9.16504c7.55664 -11.6377 14.4414 -19.4199 23.5264 -26.8936
c10.4854 -8.62891 21.9922 -15.3613 34.6191 -20.3301c23.332 -9.17676 42.6025 -4.51953 63.6748 8.41309c37.1943 22.832 66.9756 57.6143 91.0498 93.5479c47.9316 71.5469 78.3496 153.098 125.103 225.38c8.21875 12.7041 32.0918 6.85059 22.6797 -8.02441
c-56.8057 -89.7695 -89.3369 -194.863 -159.604 -276.042c-32.0664 -37.0449 -71.1768 -69.1211 -120.05 -79.2627c-37.8408 -7.85254 -79.0107 0.614258 -112.535 19.3086c-59.9219 33.4131 -81.8916 100.188 -89.0791 164.493zM310.391 354.504
c1.92285 -1.53711 0.0957031 1.30176 0 0z" />
    <glyph glyph-name="E" unicode="&#xca;" 
d="M-30.4502 -3.45605c-10.5518 94.4238 10.7627 206.729 80.4854 274.675c-2.77246 5.64062 -5.33496 11.3164 -7.71289 16.8232c-16.6543 38.5791 -21.7314 82.6426 -17.498 124.221c5.64648 55.4619 23.6914 111.255 55.1846 157.585
c16.1895 23.8164 35.0049 45.3848 57.4072 63.6016c3.02051 2.45703 6.12402 4.80273 9.30371 7.05664c1.96387 1.39062 3.9502 2.75586 5.97461 4.06055c1.27051 0.818359 2.54102 1.64258 3.83008 2.43164c0.0986328 0.0605469 16.5039 9.57812 7.08203 4.06543
c-9.80762 -5.73926 10.1982 5.78711 13.4961 7.41016c2.30176 1.13281 4.625 2.27832 7.00293 3.23926c7.87207 3.18652 16.3457 5.38281 24.752 6.64648c15.709 2.36523 31.8477 2.15527 47.123 -2.49512c32.9863 -10.043 55.4209 -45.9482 66.6035 -78.5908
c12.8184 -37.4238 16.6631 -79.6416 17.793 -118.937c0.655273 -22.7783 -0.194336 -45.5723 -2.7627 -68.2139c-2.11719 -18.6787 -3.60059 -43.6123 -12.8223 -60.4131c-12.7041 -23.1416 -44.7705 -0.860352 -60.043 7.01758
c-15.1162 7.7959 -30.3027 15.4229 -46.2246 21.4648c-12.3184 4.67578 -26.5596 10.1152 -39.8652 7.01172c-18.6562 -4.35156 -17.335 22.9912 -0.68457 26.4385c29.7969 6.16602 61.3223 -12.4355 86.8789 -25.1582c12.624 -6.2832 25.0254 -13.292 38.0479 -18.7314
c0.222656 -0.0927734 0.480469 -0.185547 0.760742 -0.27832c0.15918 0.474609 0.308594 0.926758 0.404297 1.31152c1.21875 4.89551 2.28223 9.82617 3.22168 14.7822c7.49023 39.5371 7.50977 80.7324 3.72852 120.687
c-3.10352 32.8018 -8.74414 71.3457 -27.4766 99.4336c-7.24512 10.8604 -17.0488 21.8486 -30.583 22.998c-3.10645 0.264648 -2.60352 0.331055 -6.29883 -0.0986328c-0.939453 -0.108398 -4.4375 -0.849609 -5.72949 -1.0752
c-1.16211 -0.477539 -4.49512 -1.69043 -5.33594 -2.05371c-1.78223 -0.776367 -4.16016 -2.1416 -5.06445 -2.64746c-7.81445 -5.29688 -15.209 -11.1504 -22.8389 -16.708c3.92188 1.97656 -7.27344 -5.80273 -8.02832 -6.47461
c-0.152344 -0.139648 -0.331055 -0.318359 -0.493164 -0.477539c0.875 0.999023 0.804688 1.16504 -1.57324 -1.33691c-0.588867 -0.617188 -1.19727 -1.22168 -1.80566 -1.82324c-0.401367 -0.308594 -0.798828 -0.588867 -1.19043 -0.776367
c0.34082 0.166016 0.716797 0.408203 1.10547 0.691406c-0.518555 -0.515625 -1.03418 -1.03125 -1.54004 -1.55957c-50.4648 -52.8047 -83.4033 -128.343 -77.0977 -201.752c0.298828 -3.47266 0.71582 -6.92676 1.16113 -10.3809
c0.0703125 -0.295898 0.678711 -4.31934 1.09863 -6.27344c1.39453 -6.48047 3.08496 -12.9004 5.08691 -19.2188c1.91895 -6.06348 4.11816 -12.041 6.59766 -17.8975c1.02539 -2.41895 2.14941 -4.78711 3.21582 -7.1875
c5.12793 -8.42578 9.8584 -17.1855 16.5781 -24.5098c19.8652 -21.6582 -0.0869141 -50.4463 -19.3701 -64.293c2.35254 1.39453 3.60938 2.01562 0.280273 -0.37793c-2.53418 -1.82031 -5.20117 -3.44336 -7.71582 -5.29883
c-3.22168 -2.37793 -6.22363 -5.00098 -9.29492 -7.54395c-0.212891 -0.207031 -0.432617 -0.404297 -0.636719 -0.617188c-2.21582 -2.33301 -4.46973 -4.62207 -6.63086 -7.00977c-5.28125 -5.83105 -10.0596 -11.9873 -14.8154 -18.248
c-0.191406 -0.250977 -0.328125 -0.425781 -0.477539 -0.617188c-0.318359 -0.576172 -0.760742 -1.35254 -1.40723 -2.4541c-2.25 -3.83594 -4.53516 -7.63672 -6.63281 -11.5615c-2.22852 -4.16992 -4.31055 -8.41602 -6.27734 -12.7129
c-1.41016 -3.07812 -2.73438 -6.19141 -4.01758 -9.32324c-3.7334 -10.5898 -6.71875 -21.4346 -9.05859 -32.416c-2.19629 -10.3066 -3.70508 -20.709 -5.0957 -31.1465c-0.222656 -1.6709 -0.435547 -2.67969 -0.623047 -3.24316
c-0.0283203 -1.41309 -0.00878906 -2.71191 -0.0566406 -3.22168c-0.445312 -4.89551 -0.821289 -9.79785 -1.12402 -14.7061c-1.51562 -24.5576 -1.6748 -49.4941 0.604492 -74.0039c0.512695 -5.5 1.22266 -10.9688 1.98633 -16.4375
c0.0703125 -0.229492 0.777344 -4.60645 1.21387 -6.82812c0.598633 -3.04004 1.19434 -6.08008 1.85352 -9.10742c2.83301 -13 6.66895 -25.7959 11.8643 -38.0537c2.55273 -6.01953 5.38281 -11.9082 7.94531 -17.9277
c0.359375 -0.84375 0.566406 -1.36914 0.6875 -1.7002c0.178711 -0.298828 0.385742 -0.655273 0.668945 -1.1582c1.75391 -3.10059 3.54883 -6.17578 5.49023 -9.16504c7.55664 -11.6377 14.4414 -19.4199 23.5264 -26.8936
c10.4854 -8.62891 21.9922 -15.3613 34.6191 -20.3301c23.332 -9.17676 42.6025 -4.51953 63.6748 8.41309c37.1943 22.832 66.9756 57.6143 91.0498 93.5479c47.9316 71.5469 78.3496 153.098 125.103 225.38c8.21875 12.7041 32.0918 6.85059 22.6797 -8.02441
c-56.8057 -89.7695 -89.3369 -194.863 -159.604 -276.042c-32.0664 -37.0449 -71.1768 -69.1211 -120.05 -79.2627c-37.8408 -7.85254 -79.0107 0.614258 -112.535 19.3086c-59.9219 33.4131 -81.8916 100.188 -89.0791 164.493zM310.391 354.504
c1.92285 -1.53711 0.0957031 1.30176 0 0z" />
    <glyph glyph-name="E" unicode="&#xc9;" 
d="M-30.4502 -3.45605c-10.5518 94.4238 10.7627 206.729 80.4854 274.675c-2.77246 5.64062 -5.33496 11.3164 -7.71289 16.8232c-16.6543 38.5791 -21.7314 82.6426 -17.498 124.221c5.64648 55.4619 23.6914 111.255 55.1846 157.585
c16.1895 23.8164 35.0049 45.3848 57.4072 63.6016c3.02051 2.45703 6.12402 4.80273 9.30371 7.05664c1.96387 1.39062 3.9502 2.75586 5.97461 4.06055c1.27051 0.818359 2.54102 1.64258 3.83008 2.43164c0.0986328 0.0605469 16.5039 9.57812 7.08203 4.06543
c-9.80762 -5.73926 10.1982 5.78711 13.4961 7.41016c2.30176 1.13281 4.625 2.27832 7.00293 3.23926c7.87207 3.18652 16.3457 5.38281 24.752 6.64648c15.709 2.36523 31.8477 2.15527 47.123 -2.49512c32.9863 -10.043 55.4209 -45.9482 66.6035 -78.5908
c12.8184 -37.4238 16.6631 -79.6416 17.793 -118.937c0.655273 -22.7783 -0.194336 -45.5723 -2.7627 -68.2139c-2.11719 -18.6787 -3.60059 -43.6123 -12.8223 -60.4131c-12.7041 -23.1416 -44.7705 -0.860352 -60.043 7.01758
c-15.1162 7.7959 -30.3027 15.4229 -46.2246 21.4648c-12.3184 4.67578 -26.5596 10.1152 -39.8652 7.01172c-18.6562 -4.35156 -17.335 22.9912 -0.68457 26.4385c29.7969 6.16602 61.3223 -12.4355 86.8789 -25.1582c12.624 -6.2832 25.0254 -13.292 38.0479 -18.7314
c0.222656 -0.0927734 0.480469 -0.185547 0.760742 -0.27832c0.15918 0.474609 0.308594 0.926758 0.404297 1.31152c1.21875 4.89551 2.28223 9.82617 3.22168 14.7822c7.49023 39.5371 7.50977 80.7324 3.72852 120.687
c-3.10352 32.8018 -8.74414 71.3457 -27.4766 99.4336c-7.24512 10.8604 -17.0488 21.8486 -30.583 22.998c-3.10645 0.264648 -2.60352 0.331055 -6.29883 -0.0986328c-0.939453 -0.108398 -4.4375 -0.849609 -5.72949 -1.0752
c-1.16211 -0.477539 -4.49512 -1.69043 -5.33594 -2.05371c-1.78223 -0.776367 -4.16016 -2.1416 -5.06445 -2.64746c-7.81445 -5.29688 -15.209 -11.1504 -22.8389 -16.708c3.92188 1.97656 -7.27344 -5.80273 -8.02832 -6.47461
c-0.152344 -0.139648 -0.331055 -0.318359 -0.493164 -0.477539c0.875 0.999023 0.804688 1.16504 -1.57324 -1.33691c-0.588867 -0.617188 -1.19727 -1.22168 -1.80566 -1.82324c-0.401367 -0.308594 -0.798828 -0.588867 -1.19043 -0.776367
c0.34082 0.166016 0.716797 0.408203 1.10547 0.691406c-0.518555 -0.515625 -1.03418 -1.03125 -1.54004 -1.55957c-50.4648 -52.8047 -83.4033 -128.343 -77.0977 -201.752c0.298828 -3.47266 0.71582 -6.92676 1.16113 -10.3809
c0.0703125 -0.295898 0.678711 -4.31934 1.09863 -6.27344c1.39453 -6.48047 3.08496 -12.9004 5.08691 -19.2188c1.91895 -6.06348 4.11816 -12.041 6.59766 -17.8975c1.02539 -2.41895 2.14941 -4.78711 3.21582 -7.1875
c5.12793 -8.42578 9.8584 -17.1855 16.5781 -24.5098c19.8652 -21.6582 -0.0869141 -50.4463 -19.3701 -64.293c2.35254 1.39453 3.60938 2.01562 0.280273 -0.37793c-2.53418 -1.82031 -5.20117 -3.44336 -7.71582 -5.29883
c-3.22168 -2.37793 -6.22363 -5.00098 -9.29492 -7.54395c-0.212891 -0.207031 -0.432617 -0.404297 -0.636719 -0.617188c-2.21582 -2.33301 -4.46973 -4.62207 -6.63086 -7.00977c-5.28125 -5.83105 -10.0596 -11.9873 -14.8154 -18.248
c-0.191406 -0.250977 -0.328125 -0.425781 -0.477539 -0.617188c-0.318359 -0.576172 -0.760742 -1.35254 -1.40723 -2.4541c-2.25 -3.83594 -4.53516 -7.63672 -6.63281 -11.5615c-2.22852 -4.16992 -4.31055 -8.41602 -6.27734 -12.7129
c-1.41016 -3.07812 -2.73438 -6.19141 -4.01758 -9.32324c-3.7334 -10.5898 -6.71875 -21.4346 -9.05859 -32.416c-2.19629 -10.3066 -3.70508 -20.709 -5.0957 -31.1465c-0.222656 -1.6709 -0.435547 -2.67969 -0.623047 -3.24316
c-0.0283203 -1.41309 -0.00878906 -2.71191 -0.0566406 -3.22168c-0.445312 -4.89551 -0.821289 -9.79785 -1.12402 -14.7061c-1.51562 -24.5576 -1.6748 -49.4941 0.604492 -74.0039c0.512695 -5.5 1.22266 -10.9688 1.98633 -16.4375
c0.0703125 -0.229492 0.777344 -4.60645 1.21387 -6.82812c0.598633 -3.04004 1.19434 -6.08008 1.85352 -9.10742c2.83301 -13 6.66895 -25.7959 11.8643 -38.0537c2.55273 -6.01953 5.38281 -11.9082 7.94531 -17.9277
c0.359375 -0.84375 0.566406 -1.36914 0.6875 -1.7002c0.178711 -0.298828 0.385742 -0.655273 0.668945 -1.1582c1.75391 -3.10059 3.54883 -6.17578 5.49023 -9.16504c7.55664 -11.6377 14.4414 -19.4199 23.5264 -26.8936
c10.4854 -8.62891 21.9922 -15.3613 34.6191 -20.3301c23.332 -9.17676 42.6025 -4.51953 63.6748 8.41309c37.1943 22.832 66.9756 57.6143 91.0498 93.5479c47.9316 71.5469 78.3496 153.098 125.103 225.38c8.21875 12.7041 32.0918 6.85059 22.6797 -8.02441
c-56.8057 -89.7695 -89.3369 -194.863 -159.604 -276.042c-32.0664 -37.0449 -71.1768 -69.1211 -120.05 -79.2627c-37.8408 -7.85254 -79.0107 0.614258 -112.535 19.3086c-59.9219 33.4131 -81.8916 100.188 -89.0791 164.493zM310.391 354.504
c1.92285 -1.53711 0.0957031 1.30176 0 0z" />
    <glyph glyph-name="F" unicode="F" horiz-adv-x="338" 
d="M246.783 596.937c-2.72168 -41.8359 -10.5146 -83.5869 -18.2051 -124.744c-24.9297 -133.534 -64.9062 -263.631 -94.7539 -396.035c76.3848 36.9658 152.833 73.7812 229.511 110.151c18.0898 8.57812 24.4492 -17.0264 8.1582 -25.0635
c-81.3984 -40.168 -163.042 -79.8135 -244.759 -119.325c60.3799 -7.99902 118.236 -35.0391 147.33 -91.9971c15.9346 -31.1973 17.0293 -62.6016 5.54102 -95.2695c-14.0088 -39.8398 -49.1689 -61.0713 -91.5137 -59.2637
c-77.8496 3.32324 -126.449 69.6396 -153.066 135.864c-30.9336 76.9707 -45.7861 161.521 -54.6543 243.654c-8.6709 80.2998 -8.27344 161.873 -0.12793 242.211c7.56348 74.5996 26.0254 150.835 67.9756 214.077c22.1797 33.4385 49.3057 69.1143 87.2607 85.2656
c31.9707 13.6045 74.2393 12.1787 95.582 -19.0918c19.248 -28.1963 17.835 -67.9473 15.7217 -100.434zM236.104 -49.1836c-27.3711 37.3916 -69.0586 55.1504 -113.026 61.5869c1.68066 -6.30273 3.3584 -12.6055 5.16016 -18.9521
c3.87988 -13.6934 8.2666 -27.25 13.4648 -40.5049c2.58496 -6.58887 5.33203 -13.1396 8.14258 -19.6396c0.967773 -2.24121 6.63379 -13.5576 5.35742 -11.4346c6.44922 -11.5801 13.5732 -23.0898 21.8721 -33.4219c6.96484 -8.6709 14.5498 -16.0684 24.7197 -23.7461
c19.1748 -14.4766 47.5869 -18.8945 54.1055 10.1191c6.0127 26.7607 -4.03613 54.4629 -19.7959 75.9932zM215.198 567.078c3.09375 29.9307 8.58789 72.0166 -8.49902 98.9775c-18.3125 28.8867 -41.7939 -7.62305 -52.4893 -22.0684
c-7.54395 -10.1895 -13.9961 -21.0088 -20.9863 -35.0244c-3.3291 -6.67188 -6.40039 -13.4648 -9.23926 -20.3594c-1.2666 -3.07812 -2.46973 -6.18848 -3.66309 -9.29883c0.767578 1.99902 2.30859 6.83398 -0.861328 -2.36523
c-9.86719 -28.6289 -16.498 -58.3652 -21.2764 -88.248c-1.21582 -7.60742 -2.25391 -15.2402 -3.21191 -22.8828c-0.0703125 -0.556641 -0.124023 -0.999023 -0.171875 -1.3623c-0.0888672 -0.824219 -0.194336 -1.80176 -0.325195 -3.01465
c-0.671875 -6.2168 -1.40723 -12.417 -2.15234 -18.624c-0.302734 -2.51172 -0.611328 -5.01953 -0.910156 -7.52734c-0.130859 -1.2959 -0.398438 -3.82324 -0.458984 -4.49219c-0.700195 -7.78613 -1.40723 -15.5684 -1.98926 -23.3643
c-5.31543 -71.1836 -4.59961 -142.791 1.80762 -213.883c3.25586 -36.1602 8.25 -71.1455 14.9951 -106.014c29.0303 123.345 66.3135 244.742 91.5713 368.998c7.43555 36.5674 14.0215 73.4121 17.8604 110.553z" />
    <glyph glyph-name="G" unicode="G" horiz-adv-x="500" 
d="M256.08 444.352c8.47949 26.6523 13.6836 55.4004 15.0205 83.3037c1.27344 26.3652 1.4043 54.9658 -4.60254 80.8066c-4.24023 18.2393 -17.1924 40.4922 -36.7363 37.9775c-8.55273 -1.10156 -19.1426 -9.59375 -24.9805 -13.5889
c-9.94043 -6.79883 -10.4434 -7.54395 -17.4463 -14.7344c-6.89453 -7.0791 -13.375 -14.5176 -19.3525 -22.3926c-3.00195 -3.9502 -5.78711 -8.05273 -8.74414 -12.0312c-1.0918 -1.4707 -1.8623 -2.47949 -2.40332 -3.16406
c-0.366211 -0.629883 -0.81543 -1.38477 -1.37891 -2.31445c-10.3447 -17.1279 -19.5439 -34.832 -27.6191 -53.1543c-2.04395 -4.64062 -3.9668 -9.3291 -5.87305 -14.0303c-0.490234 -1.20605 -0.87207 -2.13867 -1.1875 -2.88965
c-0.267578 -0.856445 -0.652344 -2.04688 -1.20605 -3.71484c-3.21777 -9.67676 -6.63965 -19.2705 -9.61621 -29.0303c-28.4541 -93.3379 -40.1172 -190.034 -34.7285 -287.345c2.48926 -44.8916 5.96484 -91.2188 22.1162 -133.604
c6.91699 -18.1562 17.501 -34.3105 28.8428 -50.6494c10.5771 -15.2373 25.4902 -34.96 46.7021 -28.4375c20.9512 6.44238 39.2539 30.5928 52.123 47.126c13.5508 17.415 25.1338 36.208 36.9111 54.8359c23.9941 37.9551 49.5986 74.793 76.9863 110.367
c0.604492 2.3457 1.1582 4.70117 1.82031 7.04102c3.97266 14.0156 28.9346 28.5908 38.9453 11.6123c24.7324 -41.9502 30.9072 -90.8936 31.3975 -139.035c0.194336 -19.3594 -0.292969 -38.8594 -2.03711 -58.2129c40.7568 31.2832 74.6348 72.1064 103.114 114.184
c4.55469 6.72559 12.5254 12.3848 21.1104 9.15039c7.16211 -2.69629 10.9531 -12.2168 6.45508 -18.9014c-36.7588 -54.6221 -80.4121 -106.599 -136.015 -142.807c-2.82031 -14.4541 -6.6084 -28.7148 -11.6377 -42.6475
c-28.8994 -80.0771 -95.8047 -154.574 -187.835 -149.742c-37.9873 1.99609 -73.8613 17.4248 -92.6191 51.8242c-18.3408 33.6328 -0.594727 66.2441 29.9277 84.1045c50.5703 29.5869 110.136 31.1885 165.926 45.1719c1.76367 5.98438 3.43164 11.9941 4.85449 18.0957
c11.7842 50.6016 11.1123 102.891 16.791 154.209c-25.293 -37.7578 -48.8125 -76.5723 -75.0918 -113.792c-16.9209 -23.9658 -37.0508 -47.1709 -62.1045 -62.9268c-27.8613 -17.5195 -55.1465 -22.2559 -87.2891 -14.1035
c-57.2354 14.5186 -92.374 66.7275 -109.362 120.455c-18.7549 59.3047 -23.7617 123.581 -23.2207 185.492c0.556641 63.8721 9.34863 128.088 23.832 190.254c12.124 52.0273 28.2979 106.127 57.3438 151.441c31.8467 49.6885 75.3887 95.4014 133.792 112.138
c25.1621 7.20996 56.4072 0.697266 78.8643 -12.5859c21.2285 -12.5537 33.0059 -35.1826 37.0449 -58.8428c9.61914 -56.3252 3.58691 -118.077 -10.8838 -173.062c-6.33789 -24.083 -13.9961 -47.5684 -38.0156 -59.1074
c-24.8662 -11.9463 -51.7217 -5.27734 -76.3555 3.62598c-19.3721 7.00293 -2.05566 34.8682 15.0537 28.8203c12.917 -4.56738 27.1328 -10.1533 41.1006 -8.01074c13.7734 2.11328 18.3066 10.3828 22.2666 22.8223zM242.615 -129.519
c-1.77637 -0.990234 -1.17773 -0.665039 0 0zM265.353 -112.539c1.05957 0.919922 3.45215 3.66895 3.4043 3.69141c3.43457 3.69531 6.94238 7.31152 10.1348 11.2461c4.60254 5.67188 9.61914 13.2354 14.7695 22.9824
c-27.0146 -5.9209 -54.4531 -9.81348 -81.3408 -16.332c-12.7324 -3.08789 -82.0576 -20.8623 -66.6641 -42.6924c8.04102 -11.4053 29.4189 -11.1631 41.6416 -11.6465c13.293 -0.52832 23.9053 2.17773 33.999 5.92773c7.80469 2.89941 15.1865 6.48633 22.4629 10.4941
c0.935547 0.535156 1.88086 1.08887 2.2373 1.33398c3.40234 2.34277 6.78613 4.65039 10.0518 7.1875c3.20508 2.49219 6.23828 5.14648 9.30371 7.80762z" />
    <glyph glyph-name="H" unicode="H" horiz-adv-x="663" 
d="M-42.8193 101.035c-2.25391 22.8232 17.085 47.9121 29.2539 65.7822c13.6904 20.124 29.2939 38.7988 46.8965 55.625c34.1289 32.627 74.1279 58.9834 118.176 76.1973c15.3711 6.00977 31.3789 11.0771 47.7178 14.9033
c1.56934 100.344 8.57227 201.474 26.4902 299.806c4.70508 25.8213 32.0352 44.71 56.8701 45.8848c21.8779 1.03418 49.8955 -15.2285 47.4033 -40.8906c-5.87598 -60.4824 -12.6338 -116.231 -17.0166 -179.148c-2.83301 -40.6484 -4.65039 -81.3662 -5.48438 -122.104
c46.6865 -9.36426 86.3223 -34.7754 117.876 -70.2061c21.4609 -24.0996 38.1406 -51.7285 51.6846 -80.8916c-3.16113 76.4707 -3.83008 153.047 -3.26074 229.572c0.84082 112.535 4.81934 224.383 18.4141 336.164c5.8125 47.7939 95.8496 60.542 95.4551 4.57031
c-0.432617 -61.5039 -1.63281 -122.919 -3.90918 -184.385c-3.99805 -107.968 -4.71387 -215.958 -3.14746 -323.983c0.292969 -20.3115 0.611328 -40.6133 0.970703 -60.9092c37.4395 1.55664 74.9111 2.40039 112.386 2.40039
c20.4736 0 10.4912 -29.2051 -7.08301 -29.2021c-34.9277 0.00683594 -69.8467 -0.693359 -104.733 -2.08789c0.515625 -23.8252 1.13965 -47.6504 2.03418 -71.4883c0.999023 -26.6621 2.29785 -53.2822 3.51367 -79.9346
c0.655273 -14.3428 1.74414 -28.7842 1.7666 -43.1338c0.0195312 -12.7451 -2.17383 -25.0957 -2.63574 -37.7012c-1.21582 -33.1738 -48.9023 -52.9121 -64.792 -18.9258c-6.93945 14.8398 -14.4766 27.7314 -18.6143 43.9521
c-3.88379 15.2275 -7.08008 30.6621 -9.61719 46.167c-4.12207 25.1846 -7.57227 50.5059 -9.9248 75.9229c-3.84473 13.1777 -7.80176 26.3203 -12.1084 39.3584c-4.21094 12.7451 -8.77246 25.3916 -13.8174 37.8086
c-49.0547 -4.32617 -97.9854 -10.043 -146.729 -17.1699c0.445312 -6.49316 0.919922 -12.9863 1.46094 -19.4766c2.44141 -29.3926 5.16602 -58.8906 8.79199 -88.1592c3.64746 -29.4248 10.9971 -62.0547 4.88867 -91.4473
c-6.36914 -30.6592 -47.0781 -42.6816 -68.0576 -20.292c-19.9072 21.2441 -27.1611 58.9512 -33.3623 86.6787c-6.62695 29.6318 -11.835 59.4736 -15.4287 89.6299c-0.996094 8.3584 -1.89648 16.7266 -2.74316 25.1016
c-41.2754 -8.30176 -82.3379 -17.5332 -123.76 -25.1953c-31.6367 -5.85352 -120.751 -20.1875 -125.825 31.207zM396.253 231.603c-24.542 26.5439 -55.0205 45.6729 -89.2227 54.7002c-0.0576172 -7.08594 -0.0859375 -14.1719 -0.0830078 -21.2578
c0.0224609 -41.1572 0.550781 -82.3594 2.59766 -123.479c16.3486 2.40332 32.7129 4.70117 49.1025 6.79199c28.9189 3.68945 57.9014 6.85938 86.9248 9.56836c-13.0029 26.5977 -28.9248 51.6201 -49.3193 73.6758zM-2.82812 131.082
c-5.93945 -10.6602 -15.1924 -23.7178 -1.83594 -31.7139c9.15137 -5.47852 21.5371 -5.72656 31.8633 -6.11816c28.4502 -1.07227 56.7451 5.26172 84.3525 11.373c27.126 6.00977 54.2773 11.8701 81.5566 17.1602c3.67969 0.71582 7.375 1.35547 11.0576 2.05273
c-3.32324 40.9062 -5.01074 81.9463 -5.24609 122.982c-0.0732422 12.6084 -0.0605469 25.2422 0.0126953 37.8916c-21.7148 -5.30957 -42.8506 -13.1494 -62.7705 -22.8008c-38.6973 -18.752 -73.5049 -45.6494 -101.745 -78.041
c-14.209 -16.2979 -26.7246 -33.8945 -37.2451 -52.7861z" />
    <glyph glyph-name="I" unicode="I" horiz-adv-x="292" 
d="M123.974 731.057c0.229492 -8.58789 0.399414 -17.165 0.571289 -25.75c26.2764 3.45996 52.5723 6.78906 78.9033 9.83496c19.1562 2.21191 17.6191 -24.4844 0.68457 -26.4424c-26.4043 -3.05273 -52.7734 -6.39453 -79.123 -9.86426
c1.15234 -76.7891 0.624023 -153.527 0.416992 -230.364c-0.225586 -83.6777 0.525391 -167.346 1.34668 -251.02c0.808594 -82.3945 3.48242 -165.754 12.3027 -247.719c2.00195 -18.583 4.43359 -37.3789 10.3096 -55.1982
c3.12598 -9.47656 8.8584 -33.124 21.6191 -33.8086c12.8916 -0.69043 24.0137 22.2852 29.0498 31.4238c9.41211 17.0742 18.0889 34.6064 26.4736 52.2061c33.9287 71.2246 60.2812 145.754 80.3379 222.021c3.93066 14.9482 30.3818 15.6133 26.2314 -2.00195
c-22.1924 -94.166 -56.541 -185.378 -101.092 -271.248c-14.9639 -28.8389 -33.9795 -59.0908 -68.7324 -65.2217c-42.4629 -7.49023 -69.2109 28.46 -85.3848 61.873c-19.627 40.5459 -26.916 86.5518 -34.084 130.628c-7.31445 44.9805 -11.2363 90.1865 -14.0889 135.647
c-5.80273 92.5547 -6.38477 185.453 -7.38379 278.164c-0.824219 76.7988 -0.875 153.457 0.923828 230.183c-15.498 -2.3623 -30.9971 -4.75293 -46.4766 -7.26465c-19.0762 -3.09375 -17.4365 23.7236 -0.683594 26.4385c15.9414 2.58789 31.9014 5.05176 47.8643 7.4834
c0.229492 7.74805 0.442383 15.4922 0.712891 23.2402c0.967773 27.8301 21.5244 49.3506 48.4443 54.8828c24.5986 5.05176 50.1748 -12.3564 50.8564 -38.124z" />
    <glyph glyph-name="I" unicode="&#xcf;" horiz-adv-x="292" 
d="M123.974 731.057c0.229492 -8.58789 0.399414 -17.165 0.571289 -25.75c26.2764 3.45996 52.5723 6.78906 78.9033 9.83496c19.1562 2.21191 17.6191 -24.4844 0.68457 -26.4424c-26.4043 -3.05273 -52.7734 -6.39453 -79.123 -9.86426
c1.15234 -76.7891 0.624023 -153.527 0.416992 -230.364c-0.225586 -83.6777 0.525391 -167.346 1.34668 -251.02c0.808594 -82.3945 3.48242 -165.754 12.3027 -247.719c2.00195 -18.583 4.43359 -37.3789 10.3096 -55.1982
c3.12598 -9.47656 8.8584 -33.124 21.6191 -33.8086c12.8916 -0.69043 24.0137 22.2852 29.0498 31.4238c9.41211 17.0742 18.0889 34.6064 26.4736 52.2061c33.9287 71.2246 60.2812 145.754 80.3379 222.021c3.93066 14.9482 30.3818 15.6133 26.2314 -2.00195
c-22.1924 -94.166 -56.541 -185.378 -101.092 -271.248c-14.9639 -28.8389 -33.9795 -59.0908 -68.7324 -65.2217c-42.4629 -7.49023 -69.2109 28.46 -85.3848 61.873c-19.627 40.5459 -26.916 86.5518 -34.084 130.628c-7.31445 44.9805 -11.2363 90.1865 -14.0889 135.647
c-5.80273 92.5547 -6.38477 185.453 -7.38379 278.164c-0.824219 76.7988 -0.875 153.457 0.923828 230.183c-15.498 -2.3623 -30.9971 -4.75293 -46.4766 -7.26465c-19.0762 -3.09375 -17.4365 23.7236 -0.683594 26.4385c15.9414 2.58789 31.9014 5.05176 47.8643 7.4834
c0.229492 7.74805 0.442383 15.4922 0.712891 23.2402c0.967773 27.8301 21.5244 49.3506 48.4443 54.8828c24.5986 5.05176 50.1748 -12.3564 50.8564 -38.124z" />
    <glyph glyph-name="I" unicode="&#xce;" horiz-adv-x="292" 
d="M123.974 731.057c0.229492 -8.58789 0.399414 -17.165 0.571289 -25.75c26.2764 3.45996 52.5723 6.78906 78.9033 9.83496c19.1562 2.21191 17.6191 -24.4844 0.68457 -26.4424c-26.4043 -3.05273 -52.7734 -6.39453 -79.123 -9.86426
c1.15234 -76.7891 0.624023 -153.527 0.416992 -230.364c-0.225586 -83.6777 0.525391 -167.346 1.34668 -251.02c0.808594 -82.3945 3.48242 -165.754 12.3027 -247.719c2.00195 -18.583 4.43359 -37.3789 10.3096 -55.1982
c3.12598 -9.47656 8.8584 -33.124 21.6191 -33.8086c12.8916 -0.69043 24.0137 22.2852 29.0498 31.4238c9.41211 17.0742 18.0889 34.6064 26.4736 52.2061c33.9287 71.2246 60.2812 145.754 80.3379 222.021c3.93066 14.9482 30.3818 15.6133 26.2314 -2.00195
c-22.1924 -94.166 -56.541 -185.378 -101.092 -271.248c-14.9639 -28.8389 -33.9795 -59.0908 -68.7324 -65.2217c-42.4629 -7.49023 -69.2109 28.46 -85.3848 61.873c-19.627 40.5459 -26.916 86.5518 -34.084 130.628c-7.31445 44.9805 -11.2363 90.1865 -14.0889 135.647
c-5.80273 92.5547 -6.38477 185.453 -7.38379 278.164c-0.824219 76.7988 -0.875 153.457 0.923828 230.183c-15.498 -2.3623 -30.9971 -4.75293 -46.4766 -7.26465c-19.0762 -3.09375 -17.4365 23.7236 -0.683594 26.4385c15.9414 2.58789 31.9014 5.05176 47.8643 7.4834
c0.229492 7.74805 0.442383 15.4922 0.712891 23.2402c0.967773 27.8301 21.5244 49.3506 48.4443 54.8828c24.5986 5.05176 50.1748 -12.3564 50.8564 -38.124z" />
    <glyph glyph-name="I" unicode="&#xcd;" horiz-adv-x="292" 
d="M123.974 731.057c0.229492 -8.58789 0.399414 -17.165 0.571289 -25.75c26.2764 3.45996 52.5723 6.78906 78.9033 9.83496c19.1562 2.21191 17.6191 -24.4844 0.68457 -26.4424c-26.4043 -3.05273 -52.7734 -6.39453 -79.123 -9.86426
c1.15234 -76.7891 0.624023 -153.527 0.416992 -230.364c-0.225586 -83.6777 0.525391 -167.346 1.34668 -251.02c0.808594 -82.3945 3.48242 -165.754 12.3027 -247.719c2.00195 -18.583 4.43359 -37.3789 10.3096 -55.1982
c3.12598 -9.47656 8.8584 -33.124 21.6191 -33.8086c12.8916 -0.69043 24.0137 22.2852 29.0498 31.4238c9.41211 17.0742 18.0889 34.6064 26.4736 52.2061c33.9287 71.2246 60.2812 145.754 80.3379 222.021c3.93066 14.9482 30.3818 15.6133 26.2314 -2.00195
c-22.1924 -94.166 -56.541 -185.378 -101.092 -271.248c-14.9639 -28.8389 -33.9795 -59.0908 -68.7324 -65.2217c-42.4629 -7.49023 -69.2109 28.46 -85.3848 61.873c-19.627 40.5459 -26.916 86.5518 -34.084 130.628c-7.31445 44.9805 -11.2363 90.1865 -14.0889 135.647
c-5.80273 92.5547 -6.38477 185.453 -7.38379 278.164c-0.824219 76.7988 -0.875 153.457 0.923828 230.183c-15.498 -2.3623 -30.9971 -4.75293 -46.4766 -7.26465c-19.0762 -3.09375 -17.4365 23.7236 -0.683594 26.4385c15.9414 2.58789 31.9014 5.05176 47.8643 7.4834
c0.229492 7.74805 0.442383 15.4922 0.712891 23.2402c0.967773 27.8301 21.5244 49.3506 48.4443 54.8828c24.5986 5.05176 50.1748 -12.3564 50.8564 -38.124z" />
    <glyph glyph-name="J" unicode="J" horiz-adv-x="557" 
d="M476.386 693.302c-36.2744 -4.79688 -71.5977 -12.54 -106.064 -22.6748c11.3887 -113.472 17.8311 -227.331 26.7656 -341.013c17.1885 -6.5 33.457 -15.8584 48.583 -25.8184c56.3311 -37.0957 106.179 -83.7158 149.898 -134.903
c10.791 -12.6338 -13.0439 -29.625 -24.0225 -17.4531c-45.5283 50.4746 -98.4854 97.998 -156.663 133.534c-4.76855 2.91211 -9.7373 5.72266 -14.8398 8.3457c3.29102 -39.127 6.95801 -78.2246 11.3447 -117.271c7.59766 -67.6348 13.8906 -137.033 -1.47461 -204.085
c-14.5312 -63.4043 -51.834 -127.072 -113.748 -153.82c-48.9434 -21.1455 -116.689 -40.3018 -166.391 -11.4219c-53.1191 30.8662 -46.8896 103.973 -38.9092 155.787c10.4434 67.79 36.707 132.633 68.5352 193.032c29.6445 56.2617 65.4512 115.057 116.413 154.613
c4.20508 3.26562 8.56641 6.30566 13.0547 9.10645c-12.0449 103.664 -19.9043 208.392 -23.2461 312.587c-102.979 -45.8174 -198.38 -110.173 -288.796 -177.384c-14.1875 -10.542 -28.0312 8.65527 -13.9424 19.1885c94.2168 70.4258 194.029 137.679 301.911 185.005
c-0.015625 0.636719 -0.0439453 1.27344 -0.0595703 1.91016c-1.2793 53.4316 79.0908 79.4316 100.169 35.0625c36.0137 10.749 72.9092 18.9932 110.798 24.1113c19.127 2.58496 17.5605 -24.207 0.683594 -26.4385zM317.301 -81.9541
c15.0557 53.25 12.2568 109.7 5.32129 164.042c-7.95801 62.3574 -19.4775 124.233 -27.5527 186.594c-0.811523 6.2832 -1.54004 12.5918 -2.32324 18.8848c-15.7178 -12.1309 -29.2363 -27.7539 -41.3701 -42.6123c-38.0791 -46.6328 -67.0742 -101.694 -90.7852 -156.822
c-23.876 -55.5166 -41.3135 -115.999 -41.915 -176.815c-0.235352 -23.9619 2.59082 -51.957 21.0176 -69.4668c18.3027 -17.3896 46.002 -19.5635 69.8623 -16.8008c27.3076 3.16406 55.3574 9.91504 74.9268 30.3184c16.4473 17.1475 26.4199 40.0469 32.8184 62.6787z
" />
    <glyph glyph-name="K" unicode="K" horiz-adv-x="552" 
d="M426.418 490.522c-36.3164 -87.9805 -81.8896 -173.699 -137.078 -251.939c2.26367 -24.9678 4.88379 -49.8887 7.58008 -74.8027c93.6211 19.1777 189.051 28.791 284.693 29.0205c21.3203 0.0507812 10.9111 -30.3672 -7.37891 -30.4121
c-92.0713 -0.222656 -183.948 -9.77832 -274.126 -28.1445c1.95801 -18.1631 3.88086 -36.3291 5.625 -54.5234c3.08398 -32.1426 7.2002 -64.1484 11.0039 -96.2021c1.90332 -16.04 4.61816 -31.6758 5.00293 -47.8457
c0.359375 -15.1807 4.52637 -34.0752 -7.75391 -45.958c0.00292969 0.00976562 0.00585938 0.0166016 0.00878906 0.0263672c-1.65234 -1.90039 -3.5625 -3.67383 -5.7998 -5.30664c-11.9492 -8.72168 -32.5791 -10.4727 -41.9824 3.20508
c-18.9395 27.5498 -31.4619 55.6377 -40.1201 87.9648c-8.01855 29.9404 -12.8955 60.9951 -18.2148 91.502c-2.50195 14.3467 -4.68262 28.7695 -6.68164 43.2305c-9.25684 -2.60352 -18.4941 -5.28027 -27.6963 -8.0752
c-19.5947 -18.6465 -40.1572 -36.2617 -61.8213 -52.4346c-23.2461 -17.3545 -47.7969 -33.8525 -74.2676 -45.9102c-22.791 -10.3799 -54.5137 -23.708 -77.5273 -7.8623c-5.54492 3.81641 -6.02832 11.6533 -3.16309 17.2139
c21.9414 42.5898 64.7637 65.1865 107.666 82.0479c32.9072 12.9326 66.416 24.4521 100.287 34.7529c10.3994 10.0908 20.5117 20.4902 30.3223 31.1787c-3.67676 34.4062 -6.49414 68.9238 -9.1582 103.254c-10.1162 130.402 -15.8486 264.783 0.522461 394.848
c5.64648 44.8818 86.6152 55.9814 88.7354 4.25c2.70898 -66.1318 0.745117 -132.4 2.19043 -198.583c1.35645 -62.0645 4.32031 -124.16 8.78906 -186.084c18.5732 28.0879 35.8926 56.9424 52.1201 86.0996c27.8936 50.1152 52.5566 102.031 73.7725 155.319
c22.3838 56.2266 46.9092 116.982 41.3291 178.588c-1.2959 14.3145 23.707 20.3818 25.251 4.2627c6.99023 -72.9854 -24.8408 -146.566 -52.1299 -212.68zM67.3789 51.833c13.8311 8.95117 27.25 18.5381 40.2881 28.6221
c-4.43066 -1.58789 -8.86133 -3.16992 -13.2764 -4.80273c-35.3262 -13.0664 -76.1045 -27.2598 -100.341 -57.4932c12.0293 1.12012 26.6846 8.61621 34.7471 12.2295c13.4678 6.03516 26.2031 13.4326 38.582 21.4443z" />
    <glyph glyph-name="L" unicode="L" horiz-adv-x="276" 
d="M298.477 192.791c14.3271 9.69922 27.7861 -8.66016 13.7236 -18.8877c-68.2422 -49.5703 -137.369 -98.2207 -202.219 -152.206c0.0410156 -0.553711 0.0859375 -1.10742 0.124023 -1.66406c1.93848 -26.834 5.34473 -53.9512 5.96582 -80.8389
c0.436523 -18.9805 -3.28809 -40.501 -13.5889 -57.1387c-20.8525 -33.6768 -57.668 -52.7373 -97.3643 -46.9189c-17.8447 2.61328 -36.6406 10.4727 -42.9492 28.916c-6.2832 18.373 2.18359 38.1465 11.3857 53.8711c12.4844 21.3359 28.1357 40.2852 45.2734 57.8906
c-0.333984 1.52148 -0.693359 3.0332 -1.01758 4.55762c-9.86719 46.2217 -16.6504 92.8828 -22.542 139.767c-22.9277 182.43 -20.0156 369.615 0.712891 552.049c2.83594 24.9746 32.2412 43.3281 55.0352 44.4043c21.7949 1.03125 47.4824 -14.7031 45.875 -39.5723
c-7.4707 -115.613 -10.0586 -230.956 -6.8916 -346.764c2.52734 -92.3223 10.5459 -184.043 17.5488 -276.013c61.2012 49.3955 125.824 94.4814 190.928 138.548zM40.6973 -134.046c7.41699 2.11035 10.1846 1.22168 9.27441 8.55859
c-0.621094 5.00098 -4.44434 13.0762 -5.73047 15.9727c-5.06738 11.415 -8.91602 17.6025 -12.1631 30.5322c-1.89355 7.54102 -3.79102 15.0752 -5.66602 22.6162c-9.49512 -11.084 -18.1504 -22.8105 -25.4238 -35.4219
c-5.39844 -9.36133 -14.0146 -23.335 -7.11719 -33.874c4.79688 -7.32715 14.7568 -8.87402 22.877 -9.67969c7.85547 -0.776367 16.3037 -0.87793 23.9492 1.2959z" />
    <glyph glyph-name="M" unicode="M" horiz-adv-x="660" 
d="M-14.1074 554.131c3.19922 29.8447 21.2822 52.3848 51.7568 58.6455c25.7031 5.28418 54.4365 -13.1016 54.3408 -40.7344c-0.378906 -108.21 -6.5127 -216.063 -1.07617 -324.276c9.70801 68.6973 23.7236 137.103 41.6953 204.088
c8.5625 31.9141 18.6279 64.4902 34.4482 93.6533c10.5713 19.4902 35.5176 55.501 61.4658 35.5654c23.5137 -18.0674 33.0791 -54.0459 39.0986 -81.4268c7.83008 -35.6221 11.7959 -71.6162 16.4912 -107.731c4.36133 -33.5566 8.60449 -67.1611 12.7842 -100.778
c12.5635 69.875 27.416 139.305 46.3271 207.84c13.1553 47.6826 28.0908 94.9648 45.6934 141.199c11.3574 29.8291 42.1543 78.9854 73.9248 40.0371c29.0049 -35.5557 40.0244 -87.4111 48.8701 -131.366c10.2246 -50.8115 13.8818 -102.977 16.708 -154.642
c2.7793 -50.7705 4.00488 -101.652 7.72559 -152.362c1.7666 -24.0801 3.52051 -48.2783 6.67773 -72.2246c-0.0380859 0.292969 1.29883 -8.95117 1.35938 -9.82324c0.732422 -4.17578 1.56641 -8.33887 2.46387 -12.4766
c2.10449 -9.71484 4.67969 -19.3467 7.14355 -28.9785c5.19531 -20.3018 11.8164 -40.4033 19.2168 -59.998c2.0498 -5.42676 7.24121 -21.0527 12.0254 -24.4209c3.88379 -2.73145 7.94238 1.12988 11.9854 3.98535c34.2793 24.2266 59.123 66.5742 74.8574 104.587
c7.27637 17.5771 35.084 9.94727 27.5654 -9.75293c-17.3477 -45.4678 -44.334 -84.3398 -77.957 -119.259c-17.5361 -18.2109 -36.7559 -27.5752 -62.0898 -25.2393c-24.7266 2.28223 -45.751 13.6777 -64.0537 30.4873
c-36.3125 33.3496 -48.3604 81.5898 -56.0859 128.347c-7.875 47.6602 -10.0615 95.9414 -11.4873 144.165c-2.97656 100.541 3.00781 201.121 3.67676 301.644c0.0986328 14.5059 0.50293 28.8867 1.27051 43.3789c0.331055 6.21973 1.02539 12.4932 1.14355 18.7197
c0.00292969 0.242188 -0.305664 10.9092 1.54688 11.1094c-5.65039 -0.178711 -26.4619 -56.2207 -27.8818 -60.2539c-16.667 -47.333 -30.9658 -95.4805 -43.4658 -144.077c-22.8672 -88.9043 -39.9385 -179.279 -55.0234 -269.819
c1.04395 -8.6582 2.09766 -17.3164 3.13574 -25.9717c3.00488 -25.0576 -23.418 -48.1416 -45.7441 -51.8242c-25.3154 -4.17578 -44.5537 11.4688 -48.0205 35.998c-10.4531 73.9717 -15.4697 150.303 -14.8145 225.022c0.286133 32.5537 1.90039 65.0342 2.70605 97.5684
c0.394531 16.0303 -0.209961 32.0449 0.222656 48.0654c0.216797 8.01465 0.175781 16.0205 0.299805 24.0391c0.0957031 6.07031 4.61914 15.5244 -1.06543 8.85547c-18.4463 -21.6416 -28.2148 -52.4131 -36.5391 -79.0811
c-9.39355 -30.0928 -16.6865 -60.877 -23.7402 -91.5908c-22.0234 -95.8906 -36.9297 -193.784 -39.5713 -292.142c6.73242 -56.1592 13.5986 -112.283 16.3457 -168.818c0.745117 -15.3584 -11.2334 -29.8896 -24.8535 -35.6006
c-11.4307 -4.79395 -32.3662 -4.65039 -39.083 8.41309c-13.2705 25.7988 -26.5693 51.5088 -34.8262 79.4375c-7.45801 25.2197 -13.4102 50.7324 -18.3691 76.5479c-10.749 55.9463 -17.8379 112.173 -22.001 168.979c-8.12305 110.819 -9.07129 223.73 2.77637 334.292z
" />
    <glyph glyph-name="N" unicode="N" horiz-adv-x="513" 
d="M199.048 565.807c9.16406 16.7588 21.1748 36.5234 42.3359 38.1084c18.5576 1.3877 33.2568 -13.9131 42.9912 -27.96c14.2285 -20.5342 26.0762 -42.7041 35.877 -65.6543c19.6904 -46.1045 30.7803 -95.0859 39.9287 -144.233
c9.96582 -53.5361 16.1279 -107.417 23.8408 -161.291c3.27539 -22.8799 6.31836 -47.0557 10.0811 -69.0732c4.51953 -26.4355 7.44141 -50.6904 13.1172 -73.6943c4.30078 -17.4336 10.0332 -39.8838 22.1611 -52.8008
c3.41211 -3.63184 12.9902 -9.47266 18.8027 -10.3477c-1.48047 0.681641 5.2959 3.21875 6.58203 4.0625c4.15039 2.72461 7.33301 6.37598 10.5127 10.1484c30.6758 36.3955 49.1152 83.3594 59.4512 129.339c3.4668 15.4287 30.2939 15.9287 26.6465 -2.0332
c-10.208 -50.2578 -30.5986 -98.7998 -59.4658 -141.24c-28.6514 -42.125 -79.9346 -61.0742 -127.376 -36.9434c-46.8809 23.8447 -61.7363 80.418 -69.9619 128.435c-9.14551 53.3867 -14.2354 106.831 -18.1572 160.823
c-3.77539 51.9707 -5.06738 104.068 -8.80078 156.049c-3.46973 48.291 -7.04102 97.9629 -19 145.013c-1.24121 4.88281 -2.2373 13.875 -5.95508 17.7393c-4.08398 4.24609 -4.88574 1.90332 -8.29199 -2.43164c-6.65234 -8.4707 -11.3125 -19.7041 -15.7627 -29.4443
c-10.1543 -22.2217 -17.6631 -45.627 -24.9902 -68.9014c-15.3994 -48.915 -27.9824 -98.6768 -38.7764 -148.798c-17.5615 -81.5381 -35.2021 -165.607 -41.54 -249.543c0.913086 -5.76172 1.80762 -11.5713 2.64844 -17.4854
c3.62207 -25.5566 12.5918 -57.5439 4.28027 -82.7256c-7.70312 -23.3389 -35.6318 -40.8623 -58.5469 -25.2773c-22.9473 15.6035 -33.2539 51.5693 -41.6035 76.9414c-7.97656 24.2363 -13.1455 49.3291 -18.0693 74.3418
c-10.7432 54.5869 -16.5078 110.161 -20.1592 165.64c-7.07617 107.563 -3.51465 215.716 3.61914 323.174c1.85938 28.0078 20.9102 49.4141 48.6504 55.1152c24.0195 4.93652 51.3594 -12.2969 51.0732 -38.2871c-1.16797 -105.393 -2.98828 -210.766 2.87793 -316.065
c1.97949 -35.4785 5.42969 -70.7158 9.57715 -105.918c0.139648 0.884766 0.279297 1.7666 0.418945 2.64844c9.10352 56.7227 19.5469 113.255 32.416 169.252c11.6689 50.7705 25.334 101.169 42.2686 150.45c7.375 21.4697 15.3838 42.9111 26.2988 62.8691z" />
    <glyph glyph-name="O" unicode="O" horiz-adv-x="441" 
d="M271.6 601.928c42.4688 -71.04 53.5449 -150.701 63.1162 -231.367c8.02734 -67.6182 7.80762 -136.443 -6.97754 -202.792c47.1289 -5.11816 94.834 -1.03418 139.047 18.5039c15.9727 7.06055 21.2021 -14.833 7.08203 -21.7598
c-48.6406 -23.8672 -100.996 -29.1191 -153.075 -23.8037c-1.84668 -6.41406 -3.78516 -12.8057 -5.93359 -19.1592c-12.9971 -38.4355 -30.6279 -74.4111 -53.7529 -107.761c-22.7715 -32.8428 -51.5527 -63.5625 -90.2529 -76.9375
c-38.7539 -13.3916 -83.7793 -7.26367 -110.447 26.1494c-24.6533 30.8828 -26.8496 76.4775 -26.665 114.303c0.277344 56.5283 8.49609 113.216 20.5596 168.949c-18.5127 16.1348 -34.7402 34.791 -47.5176 56.6592c-39.3086 67.2812 -46.8936 150.545 -27.6328 225.402
c16.8994 65.6709 57.5254 139.02 127.016 159.452c69.541 20.4482 131.525 -29.1191 165.435 -85.8389zM199.74 25.8271c32.3213 35.4023 55.4775 77.8975 71.1699 122.996c-21.0312 4.6123 -41.8037 10.5488 -62.0391 17.2969
c-22.9121 7.64258 -46.1836 16.3135 -68.7139 26.6172c-6.79297 -32.958 -12.1533 -66.1836 -14.5889 -99.9404c-1.38477 -19.1914 -3.22754 -38.5732 -1.97363 -57.8311c0.697266 -10.7402 2.0752 -22.9092 9.1543 -30.1602
c21.6357 -22.1543 52.0596 4.66309 66.9912 21.0215zM253.164 182.952c8.66406 -2.52148 17.4277 -4.8252 26.2607 -6.86914c2.01465 7.25781 3.87402 14.5537 5.53906 21.8779c16.5107 72.6006 20.9033 150.31 11.166 224.142
c-8.84277 67.0557 -27.8682 138.322 -72.2949 191.063c-19.251 22.8545 -45.3623 43.4268 -75.5732 48.4463c-30.1504 5.00977 -58.5371 -7.92676 -80.0547 -28.4805c-47.0107 -44.9004 -66.7559 -116.801 -66.4727 -180.106
c0.277344 -61.6182 19.0254 -124.542 61.0488 -170.127c5.3252 21.6992 11.0996 43.2168 17.0898 64.4766c7.16211 25.4199 32.1846 45.2256 59.2373 43.0391c25.4297 -2.05664 42.6182 -25.4688 36.583 -50.3506c-9.48535 -39.0947 -19.9453 -78.0244 -28.9629 -117.225
c34.0625 -16.9941 70.7383 -29.4971 106.434 -39.8867z" />
    <glyph glyph-name="O" unicode="&#xd6;" horiz-adv-x="441" 
d="M271.6 601.928c42.4688 -71.04 53.5449 -150.701 63.1162 -231.367c8.02734 -67.6182 7.80762 -136.443 -6.97754 -202.792c47.1289 -5.11816 94.834 -1.03418 139.047 18.5039c15.9727 7.06055 21.2021 -14.833 7.08203 -21.7598
c-48.6406 -23.8672 -100.996 -29.1191 -153.075 -23.8037c-1.84668 -6.41406 -3.78516 -12.8057 -5.93359 -19.1592c-12.9971 -38.4355 -30.6279 -74.4111 -53.7529 -107.761c-22.7715 -32.8428 -51.5527 -63.5625 -90.2529 -76.9375
c-38.7539 -13.3916 -83.7793 -7.26367 -110.447 26.1494c-24.6533 30.8828 -26.8496 76.4775 -26.665 114.303c0.277344 56.5283 8.49609 113.216 20.5596 168.949c-18.5127 16.1348 -34.7402 34.791 -47.5176 56.6592c-39.3086 67.2812 -46.8936 150.545 -27.6328 225.402
c16.8994 65.6709 57.5254 139.02 127.016 159.452c69.541 20.4482 131.525 -29.1191 165.435 -85.8389zM199.74 25.8271c32.3213 35.4023 55.4775 77.8975 71.1699 122.996c-21.0312 4.6123 -41.8037 10.5488 -62.0391 17.2969
c-22.9121 7.64258 -46.1836 16.3135 -68.7139 26.6172c-6.79297 -32.958 -12.1533 -66.1836 -14.5889 -99.9404c-1.38477 -19.1914 -3.22754 -38.5732 -1.97363 -57.8311c0.697266 -10.7402 2.0752 -22.9092 9.1543 -30.1602
c21.6357 -22.1543 52.0596 4.66309 66.9912 21.0215zM253.164 182.952c8.66406 -2.52148 17.4277 -4.8252 26.2607 -6.86914c2.01465 7.25781 3.87402 14.5537 5.53906 21.8779c16.5107 72.6006 20.9033 150.31 11.166 224.142
c-8.84277 67.0557 -27.8682 138.322 -72.2949 191.063c-19.251 22.8545 -45.3623 43.4268 -75.5732 48.4463c-30.1504 5.00977 -58.5371 -7.92676 -80.0547 -28.4805c-47.0107 -44.9004 -66.7559 -116.801 -66.4727 -180.106
c0.277344 -61.6182 19.0254 -124.542 61.0488 -170.127c5.3252 21.6992 11.0996 43.2168 17.0898 64.4766c7.16211 25.4199 32.1846 45.2256 59.2373 43.0391c25.4297 -2.05664 42.6182 -25.4688 36.583 -50.3506c-9.48535 -39.0947 -19.9453 -78.0244 -28.9629 -117.225
c34.0625 -16.9941 70.7383 -29.4971 106.434 -39.8867z" />
    <glyph glyph-name="O" unicode="&#xd5;" horiz-adv-x="441" 
d="M271.6 601.928c42.4688 -71.04 53.5449 -150.701 63.1162 -231.367c8.02734 -67.6182 7.80762 -136.443 -6.97754 -202.792c47.1289 -5.11816 94.834 -1.03418 139.047 18.5039c15.9727 7.06055 21.2021 -14.833 7.08203 -21.7598
c-48.6406 -23.8672 -100.996 -29.1191 -153.075 -23.8037c-1.84668 -6.41406 -3.78516 -12.8057 -5.93359 -19.1592c-12.9971 -38.4355 -30.6279 -74.4111 -53.7529 -107.761c-22.7715 -32.8428 -51.5527 -63.5625 -90.2529 -76.9375
c-38.7539 -13.3916 -83.7793 -7.26367 -110.447 26.1494c-24.6533 30.8828 -26.8496 76.4775 -26.665 114.303c0.277344 56.5283 8.49609 113.216 20.5596 168.949c-18.5127 16.1348 -34.7402 34.791 -47.5176 56.6592c-39.3086 67.2812 -46.8936 150.545 -27.6328 225.402
c16.8994 65.6709 57.5254 139.02 127.016 159.452c69.541 20.4482 131.525 -29.1191 165.435 -85.8389zM199.74 25.8271c32.3213 35.4023 55.4775 77.8975 71.1699 122.996c-21.0312 4.6123 -41.8037 10.5488 -62.0391 17.2969
c-22.9121 7.64258 -46.1836 16.3135 -68.7139 26.6172c-6.79297 -32.958 -12.1533 -66.1836 -14.5889 -99.9404c-1.38477 -19.1914 -3.22754 -38.5732 -1.97363 -57.8311c0.697266 -10.7402 2.0752 -22.9092 9.1543 -30.1602
c21.6357 -22.1543 52.0596 4.66309 66.9912 21.0215zM253.164 182.952c8.66406 -2.52148 17.4277 -4.8252 26.2607 -6.86914c2.01465 7.25781 3.87402 14.5537 5.53906 21.8779c16.5107 72.6006 20.9033 150.31 11.166 224.142
c-8.84277 67.0557 -27.8682 138.322 -72.2949 191.063c-19.251 22.8545 -45.3623 43.4268 -75.5732 48.4463c-30.1504 5.00977 -58.5371 -7.92676 -80.0547 -28.4805c-47.0107 -44.9004 -66.7559 -116.801 -66.4727 -180.106
c0.277344 -61.6182 19.0254 -124.542 61.0488 -170.127c5.3252 21.6992 11.0996 43.2168 17.0898 64.4766c7.16211 25.4199 32.1846 45.2256 59.2373 43.0391c25.4297 -2.05664 42.6182 -25.4688 36.583 -50.3506c-9.48535 -39.0947 -19.9453 -78.0244 -28.9629 -117.225
c34.0625 -16.9941 70.7383 -29.4971 106.434 -39.8867z" />
    <glyph glyph-name="O" unicode="&#xd4;" horiz-adv-x="441" 
d="M271.6 601.928c42.4688 -71.04 53.5449 -150.701 63.1162 -231.367c8.02734 -67.6182 7.80762 -136.443 -6.97754 -202.792c47.1289 -5.11816 94.834 -1.03418 139.047 18.5039c15.9727 7.06055 21.2021 -14.833 7.08203 -21.7598
c-48.6406 -23.8672 -100.996 -29.1191 -153.075 -23.8037c-1.84668 -6.41406 -3.78516 -12.8057 -5.93359 -19.1592c-12.9971 -38.4355 -30.6279 -74.4111 -53.7529 -107.761c-22.7715 -32.8428 -51.5527 -63.5625 -90.2529 -76.9375
c-38.7539 -13.3916 -83.7793 -7.26367 -110.447 26.1494c-24.6533 30.8828 -26.8496 76.4775 -26.665 114.303c0.277344 56.5283 8.49609 113.216 20.5596 168.949c-18.5127 16.1348 -34.7402 34.791 -47.5176 56.6592c-39.3086 67.2812 -46.8936 150.545 -27.6328 225.402
c16.8994 65.6709 57.5254 139.02 127.016 159.452c69.541 20.4482 131.525 -29.1191 165.435 -85.8389zM199.74 25.8271c32.3213 35.4023 55.4775 77.8975 71.1699 122.996c-21.0312 4.6123 -41.8037 10.5488 -62.0391 17.2969
c-22.9121 7.64258 -46.1836 16.3135 -68.7139 26.6172c-6.79297 -32.958 -12.1533 -66.1836 -14.5889 -99.9404c-1.38477 -19.1914 -3.22754 -38.5732 -1.97363 -57.8311c0.697266 -10.7402 2.0752 -22.9092 9.1543 -30.1602
c21.6357 -22.1543 52.0596 4.66309 66.9912 21.0215zM253.164 182.952c8.66406 -2.52148 17.4277 -4.8252 26.2607 -6.86914c2.01465 7.25781 3.87402 14.5537 5.53906 21.8779c16.5107 72.6006 20.9033 150.31 11.166 224.142
c-8.84277 67.0557 -27.8682 138.322 -72.2949 191.063c-19.251 22.8545 -45.3623 43.4268 -75.5732 48.4463c-30.1504 5.00977 -58.5371 -7.92676 -80.0547 -28.4805c-47.0107 -44.9004 -66.7559 -116.801 -66.4727 -180.106
c0.277344 -61.6182 19.0254 -124.542 61.0488 -170.127c5.3252 21.6992 11.0996 43.2168 17.0898 64.4766c7.16211 25.4199 32.1846 45.2256 59.2373 43.0391c25.4297 -2.05664 42.6182 -25.4688 36.583 -50.3506c-9.48535 -39.0947 -19.9453 -78.0244 -28.9629 -117.225
c34.0625 -16.9941 70.7383 -29.4971 106.434 -39.8867z" />
    <glyph glyph-name="O" unicode="&#xd3;" horiz-adv-x="441" 
d="M271.6 601.928c42.4688 -71.04 53.5449 -150.701 63.1162 -231.367c8.02734 -67.6182 7.80762 -136.443 -6.97754 -202.792c47.1289 -5.11816 94.834 -1.03418 139.047 18.5039c15.9727 7.06055 21.2021 -14.833 7.08203 -21.7598
c-48.6406 -23.8672 -100.996 -29.1191 -153.075 -23.8037c-1.84668 -6.41406 -3.78516 -12.8057 -5.93359 -19.1592c-12.9971 -38.4355 -30.6279 -74.4111 -53.7529 -107.761c-22.7715 -32.8428 -51.5527 -63.5625 -90.2529 -76.9375
c-38.7539 -13.3916 -83.7793 -7.26367 -110.447 26.1494c-24.6533 30.8828 -26.8496 76.4775 -26.665 114.303c0.277344 56.5283 8.49609 113.216 20.5596 168.949c-18.5127 16.1348 -34.7402 34.791 -47.5176 56.6592c-39.3086 67.2812 -46.8936 150.545 -27.6328 225.402
c16.8994 65.6709 57.5254 139.02 127.016 159.452c69.541 20.4482 131.525 -29.1191 165.435 -85.8389zM199.74 25.8271c32.3213 35.4023 55.4775 77.8975 71.1699 122.996c-21.0312 4.6123 -41.8037 10.5488 -62.0391 17.2969
c-22.9121 7.64258 -46.1836 16.3135 -68.7139 26.6172c-6.79297 -32.958 -12.1533 -66.1836 -14.5889 -99.9404c-1.38477 -19.1914 -3.22754 -38.5732 -1.97363 -57.8311c0.697266 -10.7402 2.0752 -22.9092 9.1543 -30.1602
c21.6357 -22.1543 52.0596 4.66309 66.9912 21.0215zM253.164 182.952c8.66406 -2.52148 17.4277 -4.8252 26.2607 -6.86914c2.01465 7.25781 3.87402 14.5537 5.53906 21.8779c16.5107 72.6006 20.9033 150.31 11.166 224.142
c-8.84277 67.0557 -27.8682 138.322 -72.2949 191.063c-19.251 22.8545 -45.3623 43.4268 -75.5732 48.4463c-30.1504 5.00977 -58.5371 -7.92676 -80.0547 -28.4805c-47.0107 -44.9004 -66.7559 -116.801 -66.4727 -180.106
c0.277344 -61.6182 19.0254 -124.542 61.0488 -170.127c5.3252 21.6992 11.0996 43.2168 17.0898 64.4766c7.16211 25.4199 32.1846 45.2256 59.2373 43.0391c25.4297 -2.05664 42.6182 -25.4688 36.583 -50.3506c-9.48535 -39.0947 -19.9453 -78.0244 -28.9629 -117.225
c34.0625 -16.9941 70.7383 -29.4971 106.434 -39.8867z" />
    <glyph glyph-name="P" unicode="P" horiz-adv-x="362" 
d="M102.272 651.967c-0.624023 -59.4385 -5.29785 -118.531 -8.59277 -177.861c-2.63574 -47.5742 -4.49805 -95.2441 -5.15332 -142.924c9.57129 76.4775 24.2012 152.84 54.7363 223.594c16.084 37.2705 38.5508 87.5029 81.583 99.293
c42.084 11.5293 76.4707 -28.1318 93.0674 -62.0986c20.3877 -41.7178 18.3691 -87.6152 11.3379 -132.338c-7.15527 -45.5186 -22.5811 -91.2373 -44.2832 -131.844c-22.5078 -42.1094 -50.9805 -83.0439 -85.8418 -115.887
c-1.20605 -1.13965 -2.44727 -2.2793 -3.71777 -3.41602c16.5176 0.0195312 33.2764 -1.6582 50.4971 -4.94043c46.3271 -8.83008 92.9531 -24.4971 140.41 -14.7568c18.6279 3.82324 16.9951 -22.7617 0.675781 -26.04c-43.7012 -8.7793 -86.5166 1.68945 -129.139 11.1689
c-22.7812 5.06738 -45.8682 9.68262 -69.293 9.94336c-11.1729 0.124023 -22.1289 -1.13281 -32.9004 -3.31934c-16.1543 -8.62305 -33.5723 -14.7031 -50.4424 -15.6553c-1.89355 -37.3887 -2.85156 -74.8223 -2.75293 -112.259
c0.00683594 -1.88086 0.00683594 -3.77148 0.00976562 -5.66211c1.84961 -15.3359 3.87402 -30.6465 6.13086 -45.8906c3.58398 -24.2168 7.64844 -48.4365 12.2285 -72.4814c4.09961 -21.5176 11.8887 -41.7656 15.1484 -63.3594
c3.00488 -19.8975 -21.8965 -37.8945 -39.6104 -35.9814c-34.7881 3.75586 -50.7197 33.0527 -61.2559 63.2891c-9.85449 28.2783 -17.583 57.0029 -24.1816 86.2012c-24.5645 108.668 -32.1943 220.188 -31.9268 331.383c0.273438 112.322 4.91113 225.449 19.4131 336.87
c6.74219 51.8047 104.492 65.9951 103.853 4.97168zM262.799 609.627c-55.3574 72.0205 -113.286 -125.933 -120.992 -157.735c-15.8516 -65.457 -24.8594 -132.91 -30.6748 -200.268c1.14941 0.426758 2.28906 0.897461 3.41602 1.39746
c-0.426758 0.139648 8.29199 5.67871 8.41602 5.77148c4.18262 3.07812 8.20312 6.34668 12.249 9.59668c1.11426 0.894531 1.97656 1.57227 2.64551 2.08496c0.598633 0.671875 1.49316 1.62695 2.79785 2.97656c7.2832 7.52148 14.6455 14.9473 21.7061 22.6885
c29.6406 32.4932 49.3154 62.9678 69.7705 102.512c16.9346 32.7441 30.4658 67.8379 38.1973 103.947c6.80859 31.7988 14.0947 78.8926 -7.53125 107.028z" />
    <glyph glyph-name="Q" unicode="Q" horiz-adv-x="441" 
d="M334.718 370.57c8.02441 -67.6221 7.80469 -136.448 -6.97754 -202.8c47.1289 -5.11816 94.834 -1.03418 139.047 18.5039c15.9727 7.06055 21.2021 -14.833 7.08203 -21.7598c-48.6406 -23.8672 -100.999 -29.1191 -153.074 -23.8037
c-1.84961 -6.41406 -3.78809 -12.8057 -5.93652 -19.1592c-12.9971 -38.4355 -30.6279 -74.4111 -53.7529 -107.761c-7.31445 -10.5488 -15.2598 -20.8682 -23.9434 -30.4746c17.6602 -29.4727 37.6885 -57.4746 59.6484 -84.3652
c11.1533 -13.6592 -14.0508 -31.6562 -25.4717 -18.5039c-21.6797 24.9717 -40.9277 51.9805 -57.9385 80.3545c-12.7227 -10.1572 -26.8018 -18.5068 -42.5488 -23.9463c-38.7539 -13.3916 -83.7754 -7.26367 -110.446 26.1494
c-24.6533 30.8828 -26.8525 76.4775 -26.665 114.303c0.277344 56.5283 8.49609 113.216 20.5596 168.949c-18.5127 16.1348 -34.7402 34.791 -47.5176 56.6592c-39.3086 67.2812 -46.8936 150.545 -27.6328 225.402c16.8994 65.6709 57.5254 139.02 127.016 159.452
c69.541 20.4482 131.525 -29.1191 165.435 -85.8389c42.4688 -71.0439 53.543 -150.698 63.1182 -231.361zM208.858 36.3369c27.6035 33.1738 47.8799 71.7617 62.0479 112.489c-21.0312 4.6123 -41.8037 10.5488 -62.0391 17.2969
c-22.9121 7.64258 -46.1807 16.3135 -68.7139 26.6172c-6.79297 -32.958 -12.1533 -66.1836 -14.5889 -99.9404c-1.38477 -19.1914 -3.22754 -38.5732 -1.97363 -57.8311c0.697266 -10.7402 2.0752 -22.9092 9.1543 -30.1602
c16.1094 -16.498 37.0889 -5.84082 52.918 7.42969c-4.5166 9.34277 -8.83887 18.7715 -12.9326 28.2891c-6.74219 15.6797 21.4668 28.8896 28.7432 12.0889c2.375 -5.48145 4.85449 -10.8994 7.38477 -16.2793zM253.167 182.956
c8.66113 -2.52148 17.4238 -4.8252 26.2598 -6.86914c2.01465 7.25781 3.87402 14.5537 5.53906 21.8779c16.5107 72.6006 20.9033 150.31 11.166 224.142c-8.84277 67.0557 -27.8682 138.322 -72.2949 191.063c-19.251 22.8545 -45.3623 43.4268 -75.5732 48.4463
c-30.1533 5.00977 -58.5371 -7.92676 -80.0547 -28.4805c-47.0107 -44.9004 -66.7588 -116.801 -66.4727 -180.106c0.273438 -61.6182 19.0254 -124.542 61.0488 -170.127c5.3252 21.6992 11.0996 43.2168 17.0898 64.4766c7.16211 25.4199 32.1846 45.2256 59.2373 43.0391
c25.4268 -2.05664 42.6191 -25.4688 36.584 -50.3506c-9.48535 -39.0947 -19.9453 -78.0244 -28.9629 -117.225c34.0625 -16.9941 70.7383 -29.4971 106.434 -39.8867z" />
    <glyph glyph-name="R" unicode="R" horiz-adv-x="413" 
d="M102.272 651.967c-0.624023 -59.4385 -5.29688 -118.532 -8.58496 -177.862c-2.63574 -47.5742 -4.49805 -95.2441 -5.15332 -142.924c9.57129 76.4775 24.2012 152.84 54.7363 223.594c16.084 37.2705 38.5508 87.5029 81.583 99.293
c42.084 11.5293 76.4707 -28.1318 93.0674 -62.0986c20.3877 -41.7178 18.3691 -87.6152 11.3379 -132.338c-7.15527 -45.5186 -22.5811 -91.2373 -44.2832 -131.844c-22.5078 -42.1094 -50.9805 -83.0439 -85.8418 -115.887
c-15.8135 -14.9033 -37.3857 -30.1221 -60.1611 -39.1084c29.9336 -9.4668 52.3779 -33.9893 67.2783 -63.5605c8.38086 -16.6377 16.0967 -36.5039 24.2197 -51.1299c8.74707 -15.7471 15.3838 -33.8242 26.168 -47.9668c56.7646 -74.4238 146.207 81.9434 171.321 121.579
c8.22168 12.9775 32.3779 7.20312 23.0547 -8.1582c-25.3789 -41.8096 -50.6465 -84.5938 -84.1006 -120.595c-30.9307 -33.2822 -65.9707 -49.6211 -111.285 -51.7285c-24.9043 -1.15527 -45.0879 3.39941 -66.8408 15.9219
c-23.4658 13.5059 -35.374 34.7373 -45.7441 58.9834c-8.87402 20.7471 -16.0713 42.8789 -21.4541 64.7598c-2.51758 10.2275 -4.89844 20.5244 -7.84277 30.6436c-1.55957 5.36328 -4.46875 17.5449 -9.41211 24.2617
c-1.29199 -31.0381 -1.9541 -62.1084 -1.87109 -93.1758c0.00683594 -1.88086 0.00683594 -3.77148 0.00976562 -5.66211c1.84961 -15.3359 3.87402 -30.6465 6.13086 -45.8906c3.58398 -24.2168 7.64844 -48.4365 12.2285 -72.4814
c4.09961 -21.5176 11.8887 -41.7656 15.1484 -63.3594c3.00488 -19.8975 -21.8965 -37.8945 -39.6104 -35.9814c-34.7881 3.75586 -50.7197 33.0527 -61.2559 63.2891c-9.85449 28.2783 -17.583 57.0029 -24.1816 86.2012
c-24.5645 108.668 -32.1943 220.188 -31.9268 331.383c0.273438 112.322 4.91113 225.449 19.4131 336.87c6.74219 51.8047 104.492 65.9951 103.853 4.97168zM262.8 609.626c-55.3574 72.0205 -113.285 -125.934 -120.991 -157.736
c-15.8516 -65.457 -24.8594 -132.91 -30.6748 -200.268c1.14941 0.426758 2.28906 0.897461 3.41602 1.39746c-0.426758 0.139648 8.29199 5.67871 8.41602 5.77148c4.18262 3.07812 8.20312 6.34766 12.249 9.59766c1.11426 0.894531 1.97656 1.57227 2.64453 2.08496
c0.598633 0.671875 1.49316 1.62695 2.79785 2.97656c7.2832 7.52148 14.6455 14.9473 21.7061 22.6885c29.6406 32.4932 49.3154 62.9678 69.7705 102.512c16.9346 32.7441 30.4658 67.8379 38.1973 103.947c6.80859 31.7988 14.0947 78.8926 -7.53125 107.028z" />
    <glyph glyph-name="S" unicode="S" horiz-adv-x="488" 
d="M23.792 498.188c38.748 68.0771 98.3818 125.51 167.732 162.049c60.0361 31.6367 156.634 59.2852 203.454 -8.70312c21.8389 -31.7168 26.3555 -72.8555 26.8838 -110.343c0.646484 -46.0117 -6.71289 -92.6504 -22.332 -135.963
c-12.3027 -34.1104 -33.8496 -66.8076 -73.1611 -70.1182c-24.2109 -2.03711 -48.4092 2.01465 -72.7441 -0.391602c-23.5488 -2.32715 -46.8105 -7.4873 -69.3115 -14.7578c-20.6357 -6.66504 -28.3037 20.7129 -8.99219 27.6299
c25.1309 9.00195 50.8916 14.9229 77.5273 17.1191c12.8662 1.06348 25.8242 1.4834 38.7285 1.06641c13.0059 -0.416992 26.9062 -3.39648 39.8203 -1.20605c21.9092 3.7207 32.0479 26.2129 38.9238 45.0283c9.18652 25.1406 15.1328 51.8535 18.3379 78.3975
c5.27441 43.6973 7.51172 101.936 -17.6221 140.543c-25.9834 39.916 -76.9414 37.9834 -117.115 23.583c-72.7246 -26.0732 -124.498 -82.8633 -163.163 -147.509c-42.0488 -70.3086 -68.1982 -156.733 -37.0703 -236.196
c30.7197 -78.4189 112.013 -106.752 187.401 -130.269c25.4424 -7.93555 53.2979 -16.1162 80.2715 -26.5596c59.0811 34.6797 127.508 51.2256 194.203 64.0186c17.9404 3.44141 16.0498 -21.5527 0.643555 -24.8438
c-53.6006 -11.4463 -113.615 -25.2197 -164.224 -52.4004c44.5605 -21.6035 82.6689 -52.3525 97.2539 -102.837c24.2744 -84.0342 -36.3477 -177.089 -120.251 -195.828c-37.4082 -8.35254 -78.9316 2.21191 -105.8 29.9785
c-27.8838 28.8135 -32.3438 69.9453 -26.7188 107.977c5.06738 34.2822 18.249 65.916 37.2588 93.7109c-25.7705 6.93262 -51.6904 13.4043 -77.0156 21.7949c-41.0557 13.6045 -84.0879 33.123 -115.432 63.6904c-33.2383 32.4131 -57.0127 72.5205 -67.2178 118.08
c-20.168 90.0439 4.85449 184.42 49.7295 263.259zM374.272 -36.4561c-9.52051 13.3877 -23.6475 23.7031 -40.0371 32.6094c1.21289 -0.770508 -8.95996 4.20801 -8.39648 3.95996c-2.90625 1.2793 -5.83789 2.4668 -8.77246 3.66992
c-8.80762 3.61328 -17.6406 7.24805 -26.6172 10.4443c-7.50879 2.67383 -15.0977 5.09961 -22.7148 7.43555c-10.6826 -17.8633 -18.4238 -37.3887 -23.8604 -58.1611c-10.2148 -39.0312 -10.9053 -89.7793 28.9756 -112.532
c67.6826 -38.6143 145.958 49.9688 101.423 112.574z" />
    <glyph glyph-name="T" unicode="T" horiz-adv-x="500" 
d="M7.91309 460.751c-16.7207 -9.38672 -38.5361 -11.5557 -50.8262 5.82129c-8.99902 12.7256 13.5342 29.0547 22.5742 16.3984c9.10059 -12.7393 33.0029 9.18555 41.5557 14.8994c13.3467 8.91895 26.6904 17.8477 40.0498 26.748
c25.8848 17.249 51.8203 34.4189 77.9404 51.3057c47.6475 30.8057 96.0244 60.7461 145.585 88.5c3.12598 29.877 6.83398 59.7061 11.2588 89.4717c3.63867 24.4746 30.9492 42.3955 53.8926 43.4805c21.8232 1.03125 45.8779 -14.3877 44.9229 -38.751
c-0.50293 -12.8213 -1.08203 -25.6328 -1.61328 -38.4512c12.5029 5.80566 25.0918 11.4268 37.7832 16.8379c50.2959 21.4512 102.05 39.5244 155.01 53.1895c48.877 12.6113 106.109 29.1543 155.781 12.7324c18.4521 -6.10156 2.05566 -32.7598 -14.2549 -27.2881
c-32.7285 10.9814 -68.3311 2.61621 -101.155 -4.13184c-30.9775 -6.36621 -61.6113 -14.4033 -91.7422 -24.0098c-48.832 -15.5713 -96.3145 -34.7529 -142.645 -56.4717c-1.97363 -46.04 -4.03906 -92.0742 -6.23242 -138.124
c-5.78027 -121.314 -7.13672 -243.011 -3.29785 -364.408c1.90332 -60.2178 5.06055 -120.306 7.71191 -180.479c1.32129 -30.0107 3.29199 -59.9795 4.8291 -89.9736c0.795898 -15.5176 1.61035 -31.4395 0.292969 -46.9346
c-1.25391 -14.751 -0.585938 -28.9033 -10.5742 -40.8496c-14.0059 -16.7432 -36.8672 -12.8467 -47.6963 3.81348c-9.51465 14.6387 -15.9893 31.668 -21.251 48.2236c-10.9717 34.5107 -16.5449 70.6035 -22.4492 106.245
c-10.2627 61.9307 -13.9902 125.704 -17.084 188.341c-3.09375 62.6084 -4.78418 125.29 -5.06738 187.975c-0.407227 89.8721 2.46094 179.642 10.5742 269.004c-19.0703 -10.7783 -37.959 -21.8652 -56.6729 -33.1943
c-49.7842 -30.1377 -98.5625 -61.8984 -147.121 -93.9619c-23.167 -15.3008 -45.8652 -32.3652 -70.0791 -45.957z" />
    <glyph glyph-name="U" unicode="U" horiz-adv-x="573" 
d="M376.238 581.792c25.207 5.18164 58.0879 -13.4023 56.0859 -42.0498c-4.71777 -67.4727 -10.043 -135.019 -12.1816 -202.628c-1.86816 -59.085 -1.47949 -118.625 3.42578 -177.561c4.33887 -52.123 10.498 -103.733 26.2354 -153.756
c5.68848 -18.0732 15.3496 -41.3545 32.0322 -52.0879c20.3848 -13.1113 37.5195 15.8232 46.0723 30.6309c28.0049 48.4854 44.0508 103.734 59.1191 157.3c3.9248 13.9512 29.0303 14.4062 24.5771 -1.875c-17.4688 -63.8564 -36.3926 -135.447 -75.4941 -190.041
c-14.8525 -20.7383 -36.7363 -37.6504 -62.6885 -40.3975c-30.5479 -3.23438 -56.4775 11.0391 -77.1934 32.2705c-44.7607 45.8682 -60.7588 111.736 -70.7383 173.049c-12.71 78.0684 -15.1611 156.771 -12.9111 235.492
c-12.8027 -44.0479 -24.7998 -88.3506 -37.2588 -132.459c-13.2764 -47.0205 -27.0977 -93.9111 -43.0293 -140.11c-14.4385 -41.877 -29.3545 -84.7314 -50.8018 -123.619c-20.0566 -36.3604 -47.7305 -90.3809 -97.5078 -84.0557
c-48.1064 6.11133 -67.126 69.2676 -77.1338 108.751c-25.3945 100.182 -25.2705 208.251 -25.793 310.995c-0.52832 104.157 2.68359 208.185 8.52148 312.164c1.55371 27.6357 20.8721 48.832 48.0303 54.4121c23.5264 4.83496 50.9746 -12.1152 50.4209 -37.7969
c-2.31055 -107.152 -7.41016 -214.264 -7.53711 -321.458c-0.108398 -93.5801 1.66504 -187.424 12.793 -280.405c2.61328 -21.8359 6.2002 -44.0918 12.2158 -65.2754c1.65234 -5.81836 6.28711 -15.377 7.09277 -19.5752
c0.207031 -1.08203 1.60449 -2.31055 2.09766 -2.98828c2.27246 0.436523 4.99414 1.79297 6.09863 2.2959c17.0967 7.78906 29.1006 29.2881 37.291 45.2197c8.79785 17.1123 16.1855 34.9219 23.3574 52.7627c56.21 139.847 86.9268 288.192 136.729 430.185
c1.43555 20.7158 3.00488 41.416 4.64453 62.084c2.44434 30.7773 22.6504 54.2021 53.4277 60.5273z" />
    <glyph glyph-name="U" unicode="&#xdc;" horiz-adv-x="573" 
d="M376.238 581.792c25.207 5.18164 58.0879 -13.4023 56.0859 -42.0498c-4.71777 -67.4727 -10.043 -135.019 -12.1816 -202.628c-1.86816 -59.085 -1.47949 -118.625 3.42578 -177.561c4.33887 -52.123 10.498 -103.733 26.2354 -153.756
c5.68848 -18.0732 15.3496 -41.3545 32.0322 -52.0879c20.3848 -13.1113 37.5195 15.8232 46.0723 30.6309c28.0049 48.4854 44.0508 103.734 59.1191 157.3c3.9248 13.9512 29.0303 14.4062 24.5771 -1.875c-17.4688 -63.8564 -36.3926 -135.447 -75.4941 -190.041
c-14.8525 -20.7383 -36.7363 -37.6504 -62.6885 -40.3975c-30.5479 -3.23438 -56.4775 11.0391 -77.1934 32.2705c-44.7607 45.8682 -60.7588 111.736 -70.7383 173.049c-12.71 78.0684 -15.1611 156.771 -12.9111 235.492
c-12.8027 -44.0479 -24.7998 -88.3506 -37.2588 -132.459c-13.2764 -47.0205 -27.0977 -93.9111 -43.0293 -140.11c-14.4385 -41.877 -29.3545 -84.7314 -50.8018 -123.619c-20.0566 -36.3604 -47.7305 -90.3809 -97.5078 -84.0557
c-48.1064 6.11133 -67.126 69.2676 -77.1338 108.751c-25.3945 100.182 -25.2705 208.251 -25.793 310.995c-0.52832 104.157 2.68359 208.185 8.52148 312.164c1.55371 27.6357 20.8721 48.832 48.0303 54.4121c23.5264 4.83496 50.9746 -12.1152 50.4209 -37.7969
c-2.31055 -107.152 -7.41016 -214.264 -7.53711 -321.458c-0.108398 -93.5801 1.66504 -187.424 12.793 -280.405c2.61328 -21.8359 6.2002 -44.0918 12.2158 -65.2754c1.65234 -5.81836 6.28711 -15.377 7.09277 -19.5752
c0.207031 -1.08203 1.60449 -2.31055 2.09766 -2.98828c2.27246 0.436523 4.99414 1.79297 6.09863 2.2959c17.0967 7.78906 29.1006 29.2881 37.291 45.2197c8.79785 17.1123 16.1855 34.9219 23.3574 52.7627c56.21 139.847 86.9268 288.192 136.729 430.185
c1.43555 20.7158 3.00488 41.416 4.64453 62.084c2.44434 30.7773 22.6504 54.2021 53.4277 60.5273z" />
    <glyph glyph-name="U" unicode="&#xdb;" horiz-adv-x="573" 
d="M376.238 581.792c25.207 5.18164 58.0879 -13.4023 56.0859 -42.0498c-4.71777 -67.4727 -10.043 -135.019 -12.1816 -202.628c-1.86816 -59.085 -1.47949 -118.625 3.42578 -177.561c4.33887 -52.123 10.498 -103.733 26.2354 -153.756
c5.68848 -18.0732 15.3496 -41.3545 32.0322 -52.0879c20.3848 -13.1113 37.5195 15.8232 46.0723 30.6309c28.0049 48.4854 44.0508 103.734 59.1191 157.3c3.9248 13.9512 29.0303 14.4062 24.5771 -1.875c-17.4688 -63.8564 -36.3926 -135.447 -75.4941 -190.041
c-14.8525 -20.7383 -36.7363 -37.6504 -62.6885 -40.3975c-30.5479 -3.23438 -56.4775 11.0391 -77.1934 32.2705c-44.7607 45.8682 -60.7588 111.736 -70.7383 173.049c-12.71 78.0684 -15.1611 156.771 -12.9111 235.492
c-12.8027 -44.0479 -24.7998 -88.3506 -37.2588 -132.459c-13.2764 -47.0205 -27.0977 -93.9111 -43.0293 -140.11c-14.4385 -41.877 -29.3545 -84.7314 -50.8018 -123.619c-20.0566 -36.3604 -47.7305 -90.3809 -97.5078 -84.0557
c-48.1064 6.11133 -67.126 69.2676 -77.1338 108.751c-25.3945 100.182 -25.2705 208.251 -25.793 310.995c-0.52832 104.157 2.68359 208.185 8.52148 312.164c1.55371 27.6357 20.8721 48.832 48.0303 54.4121c23.5264 4.83496 50.9746 -12.1152 50.4209 -37.7969
c-2.31055 -107.152 -7.41016 -214.264 -7.53711 -321.458c-0.108398 -93.5801 1.66504 -187.424 12.793 -280.405c2.61328 -21.8359 6.2002 -44.0918 12.2158 -65.2754c1.65234 -5.81836 6.28711 -15.377 7.09277 -19.5752
c0.207031 -1.08203 1.60449 -2.31055 2.09766 -2.98828c2.27246 0.436523 4.99414 1.79297 6.09863 2.2959c17.0967 7.78906 29.1006 29.2881 37.291 45.2197c8.79785 17.1123 16.1855 34.9219 23.3574 52.7627c56.21 139.847 86.9268 288.192 136.729 430.185
c1.43555 20.7158 3.00488 41.416 4.64453 62.084c2.44434 30.7773 22.6504 54.2021 53.4277 60.5273z" />
    <glyph glyph-name="U" unicode="&#xda;" horiz-adv-x="573" 
d="M376.238 581.792c25.207 5.18164 58.0879 -13.4023 56.0859 -42.0498c-4.71777 -67.4727 -10.043 -135.019 -12.1816 -202.628c-1.86816 -59.085 -1.47949 -118.625 3.42578 -177.561c4.33887 -52.123 10.498 -103.733 26.2354 -153.756
c5.68848 -18.0732 15.3496 -41.3545 32.0322 -52.0879c20.3848 -13.1113 37.5195 15.8232 46.0723 30.6309c28.0049 48.4854 44.0508 103.734 59.1191 157.3c3.9248 13.9512 29.0303 14.4062 24.5771 -1.875c-17.4688 -63.8564 -36.3926 -135.447 -75.4941 -190.041
c-14.8525 -20.7383 -36.7363 -37.6504 -62.6885 -40.3975c-30.5479 -3.23438 -56.4775 11.0391 -77.1934 32.2705c-44.7607 45.8682 -60.7588 111.736 -70.7383 173.049c-12.71 78.0684 -15.1611 156.771 -12.9111 235.492
c-12.8027 -44.0479 -24.7998 -88.3506 -37.2588 -132.459c-13.2764 -47.0205 -27.0977 -93.9111 -43.0293 -140.11c-14.4385 -41.877 -29.3545 -84.7314 -50.8018 -123.619c-20.0566 -36.3604 -47.7305 -90.3809 -97.5078 -84.0557
c-48.1064 6.11133 -67.126 69.2676 -77.1338 108.751c-25.3945 100.182 -25.2705 208.251 -25.793 310.995c-0.52832 104.157 2.68359 208.185 8.52148 312.164c1.55371 27.6357 20.8721 48.832 48.0303 54.4121c23.5264 4.83496 50.9746 -12.1152 50.4209 -37.7969
c-2.31055 -107.152 -7.41016 -214.264 -7.53711 -321.458c-0.108398 -93.5801 1.66504 -187.424 12.793 -280.405c2.61328 -21.8359 6.2002 -44.0918 12.2158 -65.2754c1.65234 -5.81836 6.28711 -15.377 7.09277 -19.5752
c0.207031 -1.08203 1.60449 -2.31055 2.09766 -2.98828c2.27246 0.436523 4.99414 1.79297 6.09863 2.2959c17.0967 7.78906 29.1006 29.2881 37.291 45.2197c8.79785 17.1123 16.1855 34.9219 23.3574 52.7627c56.21 139.847 86.9268 288.192 136.729 430.185
c1.43555 20.7158 3.00488 41.416 4.64453 62.084c2.44434 30.7773 22.6504 54.2021 53.4277 60.5273z" />
    <glyph glyph-name="V" unicode="V" horiz-adv-x="568" 
d="M68.2461 606.114c22.4404 -95.4229 34.875 -192.811 55.1484 -288.683c19.1621 -90.6006 42.0137 -183.786 86.5449 -264.786c14.7725 -26.8682 33.2412 -69.1113 64.7568 -80.0869c33.9512 -11.8223 53.3359 25.1299 65.4287 50.2031
c17.7715 36.8447 32.3057 75.1602 45.041 114.125c-30.835 11.376 -59.3711 28.8193 -83.3271 52.5713c-64.502 63.958 -86.5674 150.516 -74.7266 239.231c12.4551 93.3281 57.9229 178.457 112.558 253.76c26.0469 35.8994 55.0732 70.7988 90.6094 97.7246
c27.4639 20.8076 76.2734 51.8369 104.801 16.1797c24.0674 -30.083 14.1553 -80.0039 10.2559 -114.665c-5.75488 -51.1465 -16.2686 -101.561 -27.1738 -151.812c-21.9375 -101.099 -46.209 -201.768 -73.5137 -301.558
c-5.8252 -21.2881 -11.8955 -42.5166 -18.3447 -63.627c53.1514 -18.9395 112.105 -16.4316 165.279 7.84277c16.9756 7.75098 22.5176 -15.708 7.56055 -23.2266c-19.29 -9.69531 -39.582 -16.9561 -60.6572 -21.6865
c-40.8428 -9.16406 -83.6201 -9.13574 -123.874 0.394531c-4.65039 -13.9609 -9.49512 -27.8584 -14.6455 -41.6504c-15.126 -40.5146 -30.5449 -84.8262 -58.4893 -118.586c-12.1309 -14.6553 -24.5576 -29.5488 -41.832 -38.248
c-19.3848 -9.76562 -41.6377 -11.2969 -62.624 -6.82129c-44.4268 9.47266 -83.6143 43.8789 -108.617 80.7324c-54.6064 80.4814 -84.499 177.614 -105.529 271.703c-21.3486 95.5186 -36.4648 192.326 -56.5186 288.115c-6.14355 29.3447 9.08105 54.6094 36.0605 67.1504
c22.3584 10.3896 59.3838 3.10352 65.8291 -24.2969zM368.999 195.437c9.21191 -6.88184 18.8281 -12.918 28.7432 -18.1602c9.5459 32.2354 18.1973 64.7314 26.7061 97.043c23.584 89.5537 45.1465 179.646 64.6396 270.18c9.37695 43.5674 18.3633 87.3223 23.6826 131.6
c2.68652 22.3711 5.68164 45.9551 4.05469 68.5039c-0.795898 10.998 -3.16113 27.9922 -13.9648 34.0684c-15.7822 8.87402 -44.8691 -16.4727 -56.2012 -25.5449c-13.9385 -11.1572 -26.4512 -23.8965 -38.21 -37.3066
c-27.5049 -31.3691 -51.9189 -65.9531 -72.0205 -102.502c-38.8467 -70.6328 -68.1055 -153.97 -65.1992 -235.495c2.66113 -74.6377 38.3633 -138.017 97.7695 -182.386z" />
    <glyph glyph-name="W" unicode="W" horiz-adv-x="794" 
d="M821.728 172.827c17.0674 7.84668 23.2832 -16.3271 7.68555 -23.5908c-40.5146 -18.8662 -88.3662 -14.7725 -131.229 -7.28223c-12.7197 2.22168 -25.293 5.05469 -37.7227 8.38086c-6.39453 -23.3643 -14.2822 -46.209 -24.2998 -68.1182
c-32.21 -70.4326 -90.3809 -145.191 -177.021 -137.412c-84.5205 7.58887 -136.38 104.813 -160.374 175.488c-7.89453 23.249 -14.041 47.001 -18.9336 71.0459c-6.08301 -30.1885 -13.917 -60.0303 -23.6035 -89.3115
c-11.0996 -33.5596 -24.2871 -66.9502 -46.1582 -95.1016c-18.6084 -23.9492 -46.5527 -46.915 -77.7598 -49.7158c-75.4775 -6.77344 -119.983 76.4072 -136.873 137.727c-20.8906 75.8535 -24.5293 158.611 -21.5186 236.896
c3.12598 81.3057 14.623 162.608 32.6357 241.899c5.31934 23.4082 30.3867 41.2363 54.1172 39.3174c23.8545 -1.92871 38.0605 -23.1631 33.4199 -45.999c-15.4062 -75.8379 -26.7383 -151.93 -30.7012 -229.247c-3.50488 -68.3027 -2.40625 -138.442 9.0498 -206.039
c4.94043 -29.1504 13.0029 -58.9854 25.9199 -85.6504c9.62207 -19.8623 23.6406 -50.0508 49.7705 -50c28.9092 0.0507812 49.5068 38.3848 60.5391 60.3896c14.8496 29.6152 24.9492 61.8027 33.7764 93.6465c12.042 43.4336 20.0859 87.7451 24.3037 132.478
c-2.75293 29.5488 -4.38867 59.1865 -5.56934 88.5859c-2.21191 55.0547 92.3711 78.7207 97.1709 16.3984c6.14941 -79.8477 9.52344 -158.633 32.9102 -234.178c10.7051 -34.5879 24.7588 -69.1406 45.3027 -98.8457c15.6797 -22.6768 41.0303 -51.5693 71.792 -51.2256
c29.7207 0.331055 61.7939 26.1719 78.7314 48.7402c20.7891 27.7061 33.1904 62.8506 42.2529 95.9004c0.996094 3.6416 1.93848 7.30566 2.87402 10.9697c-18.0352 6.23926 -35.6533 13.6943 -52.6602 22.5625c-76.7227 40.0146 -134.085 105.898 -160.635 188.561
c-24.4082 76 -26.0029 162.186 -5.17285 239.207c18.0732 66.8359 64.0146 160.565 141.979 170.223c90.7979 11.249 114.824 -103.101 125.608 -169.366c14.9033 -91.5811 13.9453 -186.556 6.43945 -278.809c-4.13184 -50.751 -9.31055 -103.256 -20.5977 -153.94
c15.5078 -4.47559 31.2861 -8.00879 47.2207 -10.4756c35.2939 -5.46582 73.9912 -9.43164 107.331 5.8916zM618.26 195.107c6.73535 -2.95996 13.5703 -5.69824 20.4678 -8.27637c13.624 63.8311 19.1367 130.097 21.8643 194.806
c3.4541 81.8633 2.37793 166.187 -14.4795 246.655c-7.28613 34.7783 -15.5977 76.2734 -41.5078 102.54c-28.5146 28.9092 -65.1836 21.9766 -93.3701 -3.20508c-52.416 -46.8232 -74.4014 -125.245 -79.4688 -192.943c-5.2998 -70.7568 5.0166 -144.961 39.21 -207.907
c32.3018 -59.4697 85.6787 -104.612 147.284 -131.669z" />
    <glyph glyph-name="X" unicode="X" horiz-adv-x="492" 
d="M-19.9414 32.3438c13.083 31.248 24.749 63.0967 36.2461 94.9502c13.9199 38.5342 27.4102 77.3398 41.4854 115.926c-39.8779 125.825 -55.3252 261.298 -60.1953 391.869c-2.13574 57.2031 96.4385 81.8623 101 17.0449
c5.50391 -78.1582 12.4619 -156.017 24.5225 -233.468c0.639648 -4.08984 1.37207 -8.19336 2.05664 -12.29c7.62695 15.6924 15.585 31.2295 24.0488 46.5371c26.5439 48.001 57.624 93.8857 94.4307 134.648c16.8867 18.7012 35.5557 40.8906 60.2822 48.9824
c19.9805 6.53809 43.0801 1.99902 55.4277 -15.877c10.708 -15.5049 -16.5742 -35.2588 -27.2793 -19.8203c-26.7158 38.5186 -108.569 -84.3174 -121.833 -104.429c-29.4023 -44.5791 -53.8584 -91.7842 -75.5381 -140.323
c9.28809 -43.9521 20.8877 -87.8311 34.0146 -130.883c9.43457 -30.9463 20.3936 -61.501 32.085 -91.6641c10.6982 -27.6006 23.9053 -55.0068 43.1279 -77.7598c16.791 -19.875 40.7021 -34.1357 65.4473 -41.6924c30.1953 -9.21777 58.0225 -5.40137 85.7568 9.29785
c56.1816 29.7744 88.5566 88.5117 112.761 144.761c6.46484 15.0244 30.7773 8.51465 23.8066 -8.42285c-28.4189 -69.0605 -70.1689 -137.904 -141.423 -169.032c-61.208 -26.7383 -133.757 -26.334 -190.403 10.7998c-61.835 40.5371 -93.9619 113.704 -120.178 179.944
c-2.33984 5.9082 -4.59375 11.8506 -6.80566 17.8125c-0.655273 -1.81445 -1.31738 -3.62891 -1.97266 -5.44043c-19.6904 -54.498 -38.8848 -109.257 -61.0107 -162.832c-15.1934 -36.79 -40.4062 -103.763 -89.4961 -101.767
c-17.0967 0.694336 -8.35254 23.9053 5.8125 23.9531c16.5645 0.0576172 26.7441 22.2822 33.3105 34.585c7.7002 14.4287 14.2002 29.5137 20.5127 44.5889z" />
    <glyph glyph-name="Y" unicode="Y" horiz-adv-x="536" 
d="M265.793 616.3c-19.5762 55.9268 74.2754 99.4453 99.0273 41.6465c33.3623 -77.8877 44.5986 -163.552 51.0312 -247.442c3.71484 -48.4375 6.48438 -97.0498 8.04688 -145.682c0.436523 -0.0410156 0.869141 -0.0537109 1.30859 -0.0986328
c58.8779 -6.14941 112.762 -34.9727 149.431 -81.5283c10.9209 -13.8623 -14.2129 -31.8281 -25.4688 -18.5039c-31.1885 36.918 -76.5957 61.4277 -124.435 68.335c0.538086 -26.1328 0.738281 -52.2627 0.452148 -78.3672
c-0.836914 -76.5693 -6.02539 -155.08 -25.8916 -229.307c-17.7715 -66.415 -49.1191 -134.604 -102.5 -179.938c-47.1387 -40.0371 -110.692 -63.3213 -168.046 -28.9697c-55.0713 32.9893 -74.6445 100.84 -69.0645 161.443
c6.01562 65.3623 32.7061 130.508 65.833 186.687c33.168 56.252 76.5439 107.99 129.049 147.165c22.123 16.5078 46.2412 30.1348 71.7119 39.6016c-7.84277 99.4688 -15.126 196.107 -38.668 291.311c-7.59473 -42.6729 -16.3008 -85.1318 -27.6299 -126.989
c-8.59082 -31.7354 -18.8945 -62.9619 -31.0312 -93.5225c-11.3799 -28.6475 -23.6924 -58.2695 -42.1221 -83.2031c-16.1641 -21.8643 -42.5293 -41.2275 -69.6523 -46.3271c-33.251 -6.25488 -59.9697 10.5488 -81.793 33.916
c-44.1211 47.2373 -55.2783 122.623 -61.0176 184.229c-6.62695 71.1455 -2.68945 143.297 5.09277 214.159c2.68652 24.4434 17.873 45.2158 43.6689 49.4717c20.1104 3.31641 48.2646 -10.3643 45.8428 -34.3652c-7.11426 -70.5088 -13.6299 -141.078 -10.7139 -212.017
c2.2793 -55.376 7.24805 -111.315 31.0254 -162.127c9.4668 -20.2285 26.6426 -43.6211 52.0596 -30.9551c22.4023 11.166 34.708 41.7178 44.6143 62.9717c45.1172 96.8174 65.5625 202.662 83.5664 307.479c-1.21289 3.64453 -2.4541 7.28613 -3.72754 10.9277z
M315.511 -147.823c16.4473 60.3066 20.1865 123.076 20.4922 185.321c0.302734 61.3066 -2.83594 122.543 -7.39062 183.658c-38.999 -15.8613 -73.6533 -43.5098 -102.808 -73.3164c-40.3652 -41.2656 -72.8516 -89.4609 -96.8965 -141.896
c-25.5127 -55.6377 -48.501 -123.316 -33.4541 -184.843c12.3691 -50.583 55.0986 -97.4062 111.029 -90.0625c63.0664 8.2793 93.8086 65.3457 109.027 121.139z" />
    <glyph glyph-name="Y" unicode="&#x178;" horiz-adv-x="536" 
d="M265.793 616.3c-19.5762 55.9268 74.2754 99.4453 99.0273 41.6465c33.3623 -77.8877 44.5986 -163.552 51.0312 -247.442c3.71484 -48.4375 6.48438 -97.0498 8.04688 -145.682c0.436523 -0.0410156 0.869141 -0.0537109 1.30859 -0.0986328
c58.8779 -6.14941 112.762 -34.9727 149.431 -81.5283c10.9209 -13.8623 -14.2129 -31.8281 -25.4688 -18.5039c-31.1885 36.918 -76.5957 61.4277 -124.435 68.335c0.538086 -26.1328 0.738281 -52.2627 0.452148 -78.3672
c-0.836914 -76.5693 -6.02539 -155.08 -25.8916 -229.307c-17.7715 -66.415 -49.1191 -134.604 -102.5 -179.938c-47.1387 -40.0371 -110.692 -63.3213 -168.046 -28.9697c-55.0713 32.9893 -74.6445 100.84 -69.0645 161.443
c6.01562 65.3623 32.7061 130.508 65.833 186.687c33.168 56.252 76.5439 107.99 129.049 147.165c22.123 16.5078 46.2412 30.1348 71.7119 39.6016c-7.84277 99.4688 -15.126 196.107 -38.668 291.311c-7.59473 -42.6729 -16.3008 -85.1318 -27.6299 -126.989
c-8.59082 -31.7354 -18.8945 -62.9619 -31.0312 -93.5225c-11.3799 -28.6475 -23.6924 -58.2695 -42.1221 -83.2031c-16.1641 -21.8643 -42.5293 -41.2275 -69.6523 -46.3271c-33.251 -6.25488 -59.9697 10.5488 -81.793 33.916
c-44.1211 47.2373 -55.2783 122.623 -61.0176 184.229c-6.62695 71.1455 -2.68945 143.297 5.09277 214.159c2.68652 24.4434 17.873 45.2158 43.6689 49.4717c20.1104 3.31641 48.2646 -10.3643 45.8428 -34.3652c-7.11426 -70.5088 -13.6299 -141.078 -10.7139 -212.017
c2.2793 -55.376 7.24805 -111.315 31.0254 -162.127c9.4668 -20.2285 26.6426 -43.6211 52.0596 -30.9551c22.4023 11.166 34.708 41.7178 44.6143 62.9717c45.1172 96.8174 65.5625 202.662 83.5664 307.479c-1.21289 3.64453 -2.4541 7.28613 -3.72754 10.9277z
M315.511 -147.823c16.4473 60.3066 20.1865 123.076 20.4922 185.321c0.302734 61.3066 -2.83594 122.543 -7.39062 183.658c-38.999 -15.8613 -73.6533 -43.5098 -102.808 -73.3164c-40.3652 -41.2656 -72.8516 -89.4609 -96.8965 -141.896
c-25.5127 -55.6377 -48.501 -123.316 -33.4541 -184.843c12.3691 -50.583 55.0986 -97.4062 111.029 -90.0625c63.0664 8.2793 93.8086 65.3457 109.027 121.139z" />
    <glyph glyph-name="Y" unicode="&#xdd;" horiz-adv-x="536" 
d="M265.793 616.3c-19.5762 55.9268 74.2754 99.4453 99.0273 41.6465c33.3623 -77.8877 44.5986 -163.552 51.0312 -247.442c3.71484 -48.4375 6.48438 -97.0498 8.04688 -145.682c0.436523 -0.0410156 0.869141 -0.0537109 1.30859 -0.0986328
c58.8779 -6.14941 112.762 -34.9727 149.431 -81.5283c10.9209 -13.8623 -14.2129 -31.8281 -25.4688 -18.5039c-31.1885 36.918 -76.5957 61.4277 -124.435 68.335c0.538086 -26.1328 0.738281 -52.2627 0.452148 -78.3672
c-0.836914 -76.5693 -6.02539 -155.08 -25.8916 -229.307c-17.7715 -66.415 -49.1191 -134.604 -102.5 -179.938c-47.1387 -40.0371 -110.692 -63.3213 -168.046 -28.9697c-55.0713 32.9893 -74.6445 100.84 -69.0645 161.443
c6.01562 65.3623 32.7061 130.508 65.833 186.687c33.168 56.252 76.5439 107.99 129.049 147.165c22.123 16.5078 46.2412 30.1348 71.7119 39.6016c-7.84277 99.4688 -15.126 196.107 -38.668 291.311c-7.59473 -42.6729 -16.3008 -85.1318 -27.6299 -126.989
c-8.59082 -31.7354 -18.8945 -62.9619 -31.0312 -93.5225c-11.3799 -28.6475 -23.6924 -58.2695 -42.1221 -83.2031c-16.1641 -21.8643 -42.5293 -41.2275 -69.6523 -46.3271c-33.251 -6.25488 -59.9697 10.5488 -81.793 33.916
c-44.1211 47.2373 -55.2783 122.623 -61.0176 184.229c-6.62695 71.1455 -2.68945 143.297 5.09277 214.159c2.68652 24.4434 17.873 45.2158 43.6689 49.4717c20.1104 3.31641 48.2646 -10.3643 45.8428 -34.3652c-7.11426 -70.5088 -13.6299 -141.078 -10.7139 -212.017
c2.2793 -55.376 7.24805 -111.315 31.0254 -162.127c9.4668 -20.2285 26.6426 -43.6211 52.0596 -30.9551c22.4023 11.166 34.708 41.7178 44.6143 62.9717c45.1172 96.8174 65.5625 202.662 83.5664 307.479c-1.21289 3.64453 -2.4541 7.28613 -3.72754 10.9277z
M315.511 -147.823c16.4473 60.3066 20.1865 123.076 20.4922 185.321c0.302734 61.3066 -2.83594 122.543 -7.39062 183.658c-38.999 -15.8613 -73.6533 -43.5098 -102.808 -73.3164c-40.3652 -41.2656 -72.8516 -89.4609 -96.8965 -141.896
c-25.5127 -55.6377 -48.501 -123.316 -33.4541 -184.843c12.3691 -50.583 55.0986 -97.4062 111.029 -90.0625c63.0664 8.2793 93.8086 65.3457 109.027 121.139z" />
    <glyph glyph-name="Z" unicode="Z" horiz-adv-x="607" 
d="M-144.47 -81.4648c13.3184 37.5322 52.291 62.9658 88.6201 75.3389c45.541 15.5244 93.1348 20.1436 141.015 20.335c30.2646 0.121094 60.5068 -2.00879 90.7402 -4.71777c22.2021 23.9717 43.1982 49.0674 62.876 75.1533
c14.9951 19.8818 24.3086 33.5342 36.4717 51.8721c-1.61035 -2.40918 2.45801 3.82031 2.55664 3.97656c2.92188 4.56445 5.88574 9.10059 8.77246 13.6875c5.76758 9.16406 11.3857 18.4238 16.8477 27.7754c10.1572 17.3828 19.7666 35.0869 28.832 53.0684
c-9.36133 -1.5625 -18.7676 -2.12598 -28.167 -0.518555c-16.8574 2.88379 -8.85156 26.5879 5.9082 24.3564c11.459 -1.73145 23.4814 0.287109 35.4307 3.35547c4.86035 10.4404 9.54883 20.9541 14.0273 31.5635c17.2207 40.7852 31.9199 82.4678 42.4717 125.503
c10.6826 43.5703 19.7285 89.0127 17.8916 134.066c-1.71582 42.0938 -13.9385 83.5986 -48.4209 110.254c-31.5254 24.3662 -71.8965 28.3447 -110.011 20.9189c-75.9805 -14.8018 -141.639 -69.6211 -185.361 -131.52
c-40.3838 -57.1689 -77.6709 -149.95 -37.5732 -216.251c13.6875 -22.6387 -24.4043 -50.4365 -38.5088 -27.9795c-11.6279 18.5195 -18.9551 38.2646 -22.2373 59.8711c-12.9805 85.4883 40.585 174.625 96.6553 234.929c57.5537 61.9014 138.08 114.833 225.15 115.651
c41.9219 0.394531 82.0225 -15.1934 110.902 -45.8271c31.293 -33.1904 49.2295 -76.4834 56.0957 -121.057c13.7383 -89.1973 -4.08105 -185.509 -32.707 -271.481c6.5 0.805664 13.0127 1.53418 19.541 2.15137c19.4805 1.84277 17.9365 -25.5322 0.693359 -26.8408
c-10.0205 -0.760742 -20.0029 -1.81152 -29.9629 -3.02148c-33.5176 -91.1162 -78.8574 -175.434 -137.182 -253.152c32.0088 -1.74121 64.0273 -1.8623 96.0781 1.62988c89.8652 9.79102 175.214 50.0508 239.799 113.328c13.5439 13.2676 37.0547 -1.56934 22.25 -16.1826
c-63.0322 -62.2197 -143.087 -105.398 -230.275 -121.998c-49.8789 -9.49512 -100.083 -9.11328 -150.318 -5.84766c-53.5752 -67.1855 -117.673 -131.561 -195.866 -166.772c-48.0391 -21.6357 -104.905 -30.0293 -155.44 -11.6719
c-54.1699 19.6777 -76.2861 73.3799 -57.5947 126.054zM-12.6328 -28.0547c-22.8672 -5.69824 -72.209 -19.1973 -72.7148 -50.2422c-0.101562 -6.36328 3.31738 -11.2275 7.98047 -15.585c-3.03711 2.83887 7.18359 -4.4541 7.3877 -4.66113
c0.866211 -0.522461 7.23535 -4.45703 7.98633 -5.09668c6.95508 -3.47266 14.9609 -5.76172 22.2754 -8.11719c1.80469 -0.582031 2.90918 -0.992188 3.61914 -1.30078c0.750977 0.0605469 1.97656 0.0761719 4.03906 -0.00976562
c5.21094 -0.219727 10.3896 -0.636719 15.6133 -0.786133c0.750977 0.00976562 1.41016 0.0126953 2.00195 0.0195312c3.30762 0.286133 6.60254 0.658203 9.8877 1.13867c4.20508 0.560547 8.42578 1.22852 12.6055 1.95703
c4.18262 0.732422 8.28906 1.70996 12.4365 2.61035c1.02832 0.222656 1.86523 0.391602 2.5625 0.525391c0.722656 0.333984 1.6582 0.744141 2.89355 1.25684c9.57129 3.98242 19.0283 7.82129 28.4053 12.2715c1.13965 0.541016 2.02148 0.960938 2.74707 1.30176
c3.79785 2.21191 7.54102 4.53516 11.2305 6.91309c17.8574 11.5098 34.6289 24.6494 50.6045 38.6357c0.621094 0.541016 7.59863 7.00879 7.7959 7.12988c2.82031 2.68359 5.64062 5.36426 8.43262 8.07617c4.24902 4.125 8.43457 8.31445 12.6328 12.4902
c-8.31152 0.588867 -16.6162 1.11719 -24.915 1.53711c-45.6074 2.31445 -90.9854 1.02832 -135.508 -10.0645z" />
    <glyph glyph-name="bracketleft" unicode="[" horiz-adv-x="282" 
d="M223.423 -158.748c14.3115 -13.8691 9.76465 -34.5176 -1.30664 -48.7588c-25.8916 -33.3115 -79.3896 -38.8027 -111.549 -11.3516c-31.0957 26.541 -36.6562 66.6514 -42.9336 104.623c-23.3672 141.346 -16.3262 285.244 -17.5039 427.869
c-0.585938 70.8271 5.43945 142.453 24.6777 210.896c8.64551 30.7646 25.5322 61.2266 58.0098 70.9033c12.376 3.68555 28.4824 4.65625 40.3105 -1.47461c8.82031 -4.57129 15.7148 -14.124 21.4258 -22.0088c10.9248 -15.0811 -14.5527 -32.7314 -26.5566 -19.2959
c-2.54297 2.84863 -14.4795 -2.78223 -15.1543 -3.30469c-7.57617 -5.84082 -10.5684 -16.3418 -12.4971 -25.1338c-5.81836 -26.5283 -3.91504 -55.2939 -2.57812 -82.2324c2.7793 -55.959 6.39844 -111.762 7.77051 -167.794
c1.38477 -56.5762 1.03125 -113.169 2.41602 -169.742c1.37793 -56.4014 4.48438 -112.844 12.0791 -168.783c3.16113 -23.2969 6.71973 -46.8584 13.0156 -69.5508c1.05371 -3.79785 2.20898 -7.61426 3.75293 -11.249
c0.114258 -0.270508 0.21582 -0.508789 0.308594 -0.725586c1.11426 -1.78906 2.36523 -3.51758 3.69238 -5.14453c0.295898 -0.126953 0.6875 -0.331055 1.26953 -0.68457c0.573242 -0.353516 1.04785 -0.652344 1.47168 -0.929688
c13.624 5.1377 28.292 5.10254 39.8789 -6.12793z" />
    <glyph glyph-name="backslash" unicode="\" horiz-adv-x="386" 
d="M334.699 -141.301c14.5273 -56.9619 -75.2041 -101.585 -99.8506 -41.9912c-23.4053 56.6016 -36.793 117.259 -51.1045 176.665c-13.9932 58.082 -26.21 116.556 -39.4551 174.81c-26.792 117.848 -53.998 236.224 -93.2969 350.662
c-7.43262 21.6484 28.9053 44.9453 42.1377 23.7773c64.5693 -103.298 106.679 -217.199 140.764 -333.669c16.9082 -57.7832 33.0371 -115.789 49.29 -173.76c16.543 -58.9961 36.377 -117.139 51.5156 -176.494z" />
    <glyph glyph-name="bracketright" unicode="]" horiz-adv-x="301" 
d="M247.333 122.667c3.83594 -66.3232 6.1709 -133.407 -0.0810547 -199.654c-3.25 -34.4189 -6.49316 -71.0469 -18.4619 -103.702c-14.7471 -40.2441 -46.957 -65.7314 -90.25 -66.5938c-22.6162 -0.449219 -36.7109 21.5586 -34.9854 41.6855
c1.72168 20.0693 16.9463 35.7109 35.1279 42.6982c0.480469 1.63574 1.13965 3.32324 1.50879 4.7998c3.5332 14.1299 5.70703 28.6953 7.73438 43.1016c4.00781 28.46 5.75488 57.2578 6.59863 85.9727c3.19922 108.989 -7.30859 217.887 -14.4678 326.52
c-3.61621 54.9082 -8.14258 110.195 -16.4756 164.607c-3.17969 20.7637 -4.07422 44.6846 -13.3623 63.9141c-3.28516 6.79883 -7.87793 12.9834 -15.2119 15.4658c-2.51172 0.853516 -10.1006 2.15527 -11.7842 1.18164
c-17.9912 -10.4023 -40.4541 0.381836 -30.9746 22.7754c13.3086 31.4463 51.5088 39.0381 81.3057 27.9805c31.0381 -11.5166 47.584 -42.249 58.3555 -71.5654c23.3926 -63.6621 31.8662 -132.646 39.2031 -199.698c7.25098 -66.2754 12.3691 -132.93 16.2207 -199.488z
" />
    <glyph glyph-name="asciicircum" unicode="^" horiz-adv-x="274" 
d="M221.427 391.575c8.66113 -17.7744 -7.87109 -39.1777 -22.0967 -47.4375c-14.5947 -8.47363 -39.4512 -9.63867 -49.7168 6.91016c-8.65137 13.9482 -15.6094 28.8359 -22.3857 43.7646c-0.493164 -0.887695 -0.999023 -1.77246 -1.48926 -2.66406
c-10.3447 -18.8281 -19.8848 -38.8691 -33.9473 -55.2842c-11.5449 -13.4707 -41.7656 -14.1738 -41.791 8.78906c-0.0253906 26.2285 11.3799 51.5371 21.5566 75.21c9.11035 21.1963 20.3691 43.8945 39.4297 57.9316c24.8662 18.3125 51.3047 9.4668 66.4336 -14.8525
c15.002 -24.1084 31.5225 -46.7559 44.0068 -72.3672zM145.877 425.88c1.63574 0.760742 1.08496 0.942383 0 0z" />
    <glyph glyph-name="underscore" unicode="_" horiz-adv-x="389" 
d="M293.939 -21.0088c22.25 1.53418 44.6338 -8.50195 45.4141 -34.04c0.712891 -23.4336 -20.3213 -46.0078 -43.2559 -49c-41.002 -5.35742 -82.2295 -9.14258 -123.508 -11.5264c-37.4209 -2.16113 -89.4873 -14.4229 -117.429 17.1279
c-6.96191 7.85938 -6.42676 22.8711 -1.08887 31.3477c0.283203 0.449219 0.563477 0.898438 0.84668 1.34766c7.28906 11.5771 18.3789 19.2041 32.3652 19.876c7.16211 0.34375 11.8066 -0.101562 19.3057 1.27344c20.2695 3.71777 40.374 7.14941 60.7998 10.0459
c42.0137 5.95898 84.2148 10.6289 126.55 13.5479z" />
    <glyph glyph-name="grave" unicode="`" horiz-adv-x="207" 
d="M153.055 342.995c15.9756 -20.792 -14.8008 -53.4072 -37.1846 -42.7188c-55.7139 26.6104 -64.3623 98.0547 -65.8555 153.271c-1.19727 44.3535 74.7705 63.6562 78.4473 13.2393c1.62305 -22.2373 3.47852 -44.9648 7.19336 -66.957
c3.1416 -18.6055 5.61523 -41.502 17.3994 -56.835z" />
    <glyph glyph-name="a" unicode="a" horiz-adv-x="383" 
d="M386.144 163.404c4.91113 12.2646 29.0703 9.33105 23.834 -4.96094c-16.4443 -44.8877 -35.7754 -88.7793 -59.4199 -130.37c-19.9482 -35.0908 -59.2021 -64.1719 -98.335 -35.4893c-41.3037 30.2744 -54.0391 87.7773 -60.8955 135.282
c-1.21582 8.41602 -2.16797 16.8799 -3.00488 25.3662c-7.51172 -30.4658 -16.1348 -60.5938 -28.1855 -89.6621c-17.9014 -43.1816 -59.0781 -106.971 -114.648 -80.6338c-52.0498 24.666 -71.0469 93.8574 -66.9502 147.171
c4.50684 58.6611 29.8604 118.904 82.2607 150.328c40.7822 24.4521 87.8408 22.8193 127.658 3.22754c3.09375 28.2217 21.4414 49.5615 50.1211 55.457c24.9619 5.12793 52.9443 -12.7324 52.8174 -39.5918c-0.200195 -42.4307 -3.31055 -84.7598 -3.06543 -127.229
c0.209961 -35.8643 1.14258 -74.3828 9.28516 -109.448c3.08398 -13.2764 6.21289 -31.2549 13.8525 -43.1758c1.03418 0.894531 1.97656 1.875 2.79492 2.97363c2.6416 3.02051 4.73926 6.3623 6.86914 9.73926c5.19824 8.24121 9.90625 16.8574 14.6621 25.3594
c19.0791 34.1074 35.8223 69.3789 50.3496 105.656zM140.617 91.0156c14.1963 38.8779 23.666 79.1543 33.5977 119.297c-17.4277 10.1982 -36.4023 19.4424 -56.6211 15.1416c-10.3193 -2.19629 -10.8926 -4.37402 -20.9736 -11.1572
c-3.1416 -2.68652 -4.40234 -3.66016 -3.82031 -2.96582c-1.78223 -1.77637 -3.55176 -3.55859 -5.22266 -5.43652c-2.10449 -2.3623 -4.11621 -4.79785 -6.04199 -7.30566c-3.21191 -4.25586 -3.77832 -5.05469 -1.70312 -2.40039
c-23.7393 -37.335 -27.9375 -87.7041 -17.0254 -132.634c3.01074 -12.3916 16.0459 -61.2998 35.418 -47.1221c21.5371 15.7598 33.6865 50.7451 42.3926 74.583z" />
    <glyph glyph-name="a" unicode="&#xe5;" horiz-adv-x="383" 
d="M386.144 163.404c4.91113 12.2646 29.0703 9.33105 23.834 -4.96094c-16.4443 -44.8877 -35.7754 -88.7793 -59.4199 -130.37c-19.9482 -35.0908 -59.2021 -64.1719 -98.335 -35.4893c-41.3037 30.2744 -54.0391 87.7773 -60.8955 135.282
c-1.21582 8.41602 -2.16797 16.8799 -3.00488 25.3662c-7.51172 -30.4658 -16.1348 -60.5938 -28.1855 -89.6621c-17.9014 -43.1816 -59.0781 -106.971 -114.648 -80.6338c-52.0498 24.666 -71.0469 93.8574 -66.9502 147.171
c4.50684 58.6611 29.8604 118.904 82.2607 150.328c40.7822 24.4521 87.8408 22.8193 127.658 3.22754c3.09375 28.2217 21.4414 49.5615 50.1211 55.457c24.9619 5.12793 52.9443 -12.7324 52.8174 -39.5918c-0.200195 -42.4307 -3.31055 -84.7598 -3.06543 -127.229
c0.209961 -35.8643 1.14258 -74.3828 9.28516 -109.448c3.08398 -13.2764 6.21289 -31.2549 13.8525 -43.1758c1.03418 0.894531 1.97656 1.875 2.79492 2.97363c2.6416 3.02051 4.73926 6.3623 6.86914 9.73926c5.19824 8.24121 9.90625 16.8574 14.6621 25.3594
c19.0791 34.1074 35.8223 69.3789 50.3496 105.656zM140.617 91.0156c14.1963 38.8779 23.666 79.1543 33.5977 119.297c-17.4277 10.1982 -36.4023 19.4424 -56.6211 15.1416c-10.3193 -2.19629 -10.8926 -4.37402 -20.9736 -11.1572
c-3.1416 -2.68652 -4.40234 -3.66016 -3.82031 -2.96582c-1.78223 -1.77637 -3.55176 -3.55859 -5.22266 -5.43652c-2.10449 -2.3623 -4.11621 -4.79785 -6.04199 -7.30566c-3.21191 -4.25586 -3.77832 -5.05469 -1.70312 -2.40039
c-23.7393 -37.335 -27.9375 -87.7041 -17.0254 -132.634c3.01074 -12.3916 16.0459 -61.2998 35.418 -47.1221c21.5371 15.7598 33.6865 50.7451 42.3926 74.583z" />
    <glyph glyph-name="a" unicode="&#xe4;" horiz-adv-x="383" 
d="M386.144 163.404c4.91113 12.2646 29.0703 9.33105 23.834 -4.96094c-16.4443 -44.8877 -35.7754 -88.7793 -59.4199 -130.37c-19.9482 -35.0908 -59.2021 -64.1719 -98.335 -35.4893c-41.3037 30.2744 -54.0391 87.7773 -60.8955 135.282
c-1.21582 8.41602 -2.16797 16.8799 -3.00488 25.3662c-7.51172 -30.4658 -16.1348 -60.5938 -28.1855 -89.6621c-17.9014 -43.1816 -59.0781 -106.971 -114.648 -80.6338c-52.0498 24.666 -71.0469 93.8574 -66.9502 147.171
c4.50684 58.6611 29.8604 118.904 82.2607 150.328c40.7822 24.4521 87.8408 22.8193 127.658 3.22754c3.09375 28.2217 21.4414 49.5615 50.1211 55.457c24.9619 5.12793 52.9443 -12.7324 52.8174 -39.5918c-0.200195 -42.4307 -3.31055 -84.7598 -3.06543 -127.229
c0.209961 -35.8643 1.14258 -74.3828 9.28516 -109.448c3.08398 -13.2764 6.21289 -31.2549 13.8525 -43.1758c1.03418 0.894531 1.97656 1.875 2.79492 2.97363c2.6416 3.02051 4.73926 6.3623 6.86914 9.73926c5.19824 8.24121 9.90625 16.8574 14.6621 25.3594
c19.0791 34.1074 35.8223 69.3789 50.3496 105.656zM140.617 91.0156c14.1963 38.8779 23.666 79.1543 33.5977 119.297c-17.4277 10.1982 -36.4023 19.4424 -56.6211 15.1416c-10.3193 -2.19629 -10.8926 -4.37402 -20.9736 -11.1572
c-3.1416 -2.68652 -4.40234 -3.66016 -3.82031 -2.96582c-1.78223 -1.77637 -3.55176 -3.55859 -5.22266 -5.43652c-2.10449 -2.3623 -4.11621 -4.79785 -6.04199 -7.30566c-3.21191 -4.25586 -3.77832 -5.05469 -1.70312 -2.40039
c-23.7393 -37.335 -27.9375 -87.7041 -17.0254 -132.634c3.01074 -12.3916 16.0459 -61.2998 35.418 -47.1221c21.5371 15.7598 33.6865 50.7451 42.3926 74.583z" />
    <glyph glyph-name="a" unicode="&#xe3;" horiz-adv-x="383" 
d="M386.144 163.404c4.91113 12.2646 29.0703 9.33105 23.834 -4.96094c-16.4443 -44.8877 -35.7754 -88.7793 -59.4199 -130.37c-19.9482 -35.0908 -59.2021 -64.1719 -98.335 -35.4893c-41.3037 30.2744 -54.0391 87.7773 -60.8955 135.282
c-1.21582 8.41602 -2.16797 16.8799 -3.00488 25.3662c-7.51172 -30.4658 -16.1348 -60.5938 -28.1855 -89.6621c-17.9014 -43.1816 -59.0781 -106.971 -114.648 -80.6338c-52.0498 24.666 -71.0469 93.8574 -66.9502 147.171
c4.50684 58.6611 29.8604 118.904 82.2607 150.328c40.7822 24.4521 87.8408 22.8193 127.658 3.22754c3.09375 28.2217 21.4414 49.5615 50.1211 55.457c24.9619 5.12793 52.9443 -12.7324 52.8174 -39.5918c-0.200195 -42.4307 -3.31055 -84.7598 -3.06543 -127.229
c0.209961 -35.8643 1.14258 -74.3828 9.28516 -109.448c3.08398 -13.2764 6.21289 -31.2549 13.8525 -43.1758c1.03418 0.894531 1.97656 1.875 2.79492 2.97363c2.6416 3.02051 4.73926 6.3623 6.86914 9.73926c5.19824 8.24121 9.90625 16.8574 14.6621 25.3594
c19.0791 34.1074 35.8223 69.3789 50.3496 105.656zM140.617 91.0156c14.1963 38.8779 23.666 79.1543 33.5977 119.297c-17.4277 10.1982 -36.4023 19.4424 -56.6211 15.1416c-10.3193 -2.19629 -10.8926 -4.37402 -20.9736 -11.1572
c-3.1416 -2.68652 -4.40234 -3.66016 -3.82031 -2.96582c-1.78223 -1.77637 -3.55176 -3.55859 -5.22266 -5.43652c-2.10449 -2.3623 -4.11621 -4.79785 -6.04199 -7.30566c-3.21191 -4.25586 -3.77832 -5.05469 -1.70312 -2.40039
c-23.7393 -37.335 -27.9375 -87.7041 -17.0254 -132.634c3.01074 -12.3916 16.0459 -61.2998 35.418 -47.1221c21.5371 15.7598 33.6865 50.7451 42.3926 74.583z" />
    <glyph glyph-name="a" unicode="&#xe2;" horiz-adv-x="383" 
d="M386.144 163.404c4.91113 12.2646 29.0703 9.33105 23.834 -4.96094c-16.4443 -44.8877 -35.7754 -88.7793 -59.4199 -130.37c-19.9482 -35.0908 -59.2021 -64.1719 -98.335 -35.4893c-41.3037 30.2744 -54.0391 87.7773 -60.8955 135.282
c-1.21582 8.41602 -2.16797 16.8799 -3.00488 25.3662c-7.51172 -30.4658 -16.1348 -60.5938 -28.1855 -89.6621c-17.9014 -43.1816 -59.0781 -106.971 -114.648 -80.6338c-52.0498 24.666 -71.0469 93.8574 -66.9502 147.171
c4.50684 58.6611 29.8604 118.904 82.2607 150.328c40.7822 24.4521 87.8408 22.8193 127.658 3.22754c3.09375 28.2217 21.4414 49.5615 50.1211 55.457c24.9619 5.12793 52.9443 -12.7324 52.8174 -39.5918c-0.200195 -42.4307 -3.31055 -84.7598 -3.06543 -127.229
c0.209961 -35.8643 1.14258 -74.3828 9.28516 -109.448c3.08398 -13.2764 6.21289 -31.2549 13.8525 -43.1758c1.03418 0.894531 1.97656 1.875 2.79492 2.97363c2.6416 3.02051 4.73926 6.3623 6.86914 9.73926c5.19824 8.24121 9.90625 16.8574 14.6621 25.3594
c19.0791 34.1074 35.8223 69.3789 50.3496 105.656zM140.617 91.0156c14.1963 38.8779 23.666 79.1543 33.5977 119.297c-17.4277 10.1982 -36.4023 19.4424 -56.6211 15.1416c-10.3193 -2.19629 -10.8926 -4.37402 -20.9736 -11.1572
c-3.1416 -2.68652 -4.40234 -3.66016 -3.82031 -2.96582c-1.78223 -1.77637 -3.55176 -3.55859 -5.22266 -5.43652c-2.10449 -2.3623 -4.11621 -4.79785 -6.04199 -7.30566c-3.21191 -4.25586 -3.77832 -5.05469 -1.70312 -2.40039
c-23.7393 -37.335 -27.9375 -87.7041 -17.0254 -132.634c3.01074 -12.3916 16.0459 -61.2998 35.418 -47.1221c21.5371 15.7598 33.6865 50.7451 42.3926 74.583z" />
    <glyph glyph-name="a" unicode="&#xe1;" horiz-adv-x="383" 
d="M386.144 163.404c4.91113 12.2646 29.0703 9.33105 23.834 -4.96094c-16.4443 -44.8877 -35.7754 -88.7793 -59.4199 -130.37c-19.9482 -35.0908 -59.2021 -64.1719 -98.335 -35.4893c-41.3037 30.2744 -54.0391 87.7773 -60.8955 135.282
c-1.21582 8.41602 -2.16797 16.8799 -3.00488 25.3662c-7.51172 -30.4658 -16.1348 -60.5938 -28.1855 -89.6621c-17.9014 -43.1816 -59.0781 -106.971 -114.648 -80.6338c-52.0498 24.666 -71.0469 93.8574 -66.9502 147.171
c4.50684 58.6611 29.8604 118.904 82.2607 150.328c40.7822 24.4521 87.8408 22.8193 127.658 3.22754c3.09375 28.2217 21.4414 49.5615 50.1211 55.457c24.9619 5.12793 52.9443 -12.7324 52.8174 -39.5918c-0.200195 -42.4307 -3.31055 -84.7598 -3.06543 -127.229
c0.209961 -35.8643 1.14258 -74.3828 9.28516 -109.448c3.08398 -13.2764 6.21289 -31.2549 13.8525 -43.1758c1.03418 0.894531 1.97656 1.875 2.79492 2.97363c2.6416 3.02051 4.73926 6.3623 6.86914 9.73926c5.19824 8.24121 9.90625 16.8574 14.6621 25.3594
c19.0791 34.1074 35.8223 69.3789 50.3496 105.656zM140.617 91.0156c14.1963 38.8779 23.666 79.1543 33.5977 119.297c-17.4277 10.1982 -36.4023 19.4424 -56.6211 15.1416c-10.3193 -2.19629 -10.8926 -4.37402 -20.9736 -11.1572
c-3.1416 -2.68652 -4.40234 -3.66016 -3.82031 -2.96582c-1.78223 -1.77637 -3.55176 -3.55859 -5.22266 -5.43652c-2.10449 -2.3623 -4.11621 -4.79785 -6.04199 -7.30566c-3.21191 -4.25586 -3.77832 -5.05469 -1.70312 -2.40039
c-23.7393 -37.335 -27.9375 -87.7041 -17.0254 -132.634c3.01074 -12.3916 16.0459 -61.2998 35.418 -47.1221c21.5371 15.7598 33.6865 50.7451 42.3926 74.583z" />
    <glyph glyph-name="b" unicode="b" horiz-adv-x="425" 
d="M428.413 162.428c8.91309 13.0566 33.1396 2.13672 23.5049 -12.2959c-27.8555 -41.6641 -67.3613 -65.8301 -109.474 -87.0547c-0.792969 -43.207 -10.2949 -86.9111 -27.293 -126.35c-20.2539 -47.002 -60.5107 -91.6641 -115.633 -88.1084
c-46.7217 3.01758 -76.8877 44.0127 -67.749 89.0889c-3.26855 -4.49805 -7.63867 -8.40332 -13.0312 -11.5322c-12.0674 -7.00293 -34.585 -8.62988 -42.7812 5.94531c-21.8584 38.8652 -40.0146 77.2598 -52.499 120.251
c-12.3027 42.3643 -21.9062 85.1416 -29.0332 128.667c-13.4961 82.4297 -18.4424 165.83 -13.626 249.233c4.36426 75.624 13.3154 151.369 40.0635 222.633c24.5449 65.3965 68.042 130.315 128.894 166.845c50.9199 30.5674 117.077 51.6172 176.741 41.7588
c61.7139 -10.1953 111.494 -49.2139 122.333 -112.879c11.501 -67.5586 -19.4805 -138.042 -47.6221 -197.913c-26.4102 -56.1846 -59.6924 -108.995 -97.791 -157.971c-60.7715 -78.123 -134.26 -143.972 -206.876 -210.636
c0.786133 -5.42383 1.54688 -10.8447 2.39648 -16.2715c4.89844 -31.2773 10.9492 -62.2168 18.0859 -93.0674c6.02539 21.5879 13.4902 42.7236 20.8115 62.7676c15.0469 41.2021 33.6904 88.3594 70.2393 115.432c16.04 11.8789 36.2529 15.9785 53.9541 5.04102
c14.5117 -8.9668 28.209 -25.5352 37.9844 -39.2324c26.1396 -36.6309 38.5283 -80.8096 41.667 -125.242c33.7666 17.3828 64.6709 38.5723 86.7334 70.8906zM81.8496 374.074c0.480469 -54.7012 4.06836 -108.779 10.7588 -162.806
c69.8467 63.6875 139.557 127.524 197.298 202.897c35.5078 46.3496 65.833 96.5186 90.1904 149.594c26.041 56.7451 57.5312 127.216 39.2471 190.544c-17.6406 61.0898 -83.0156 84.6699 -141.289 73.373c-24.4053 -4.7334 -51.7383 -16.0781 -69.9932 -33.2793
c-18.9932 -17.8955 -38.4072 -41.4092 -52.0566 -61.1162c-14.4355 -20.8457 -27.6172 -49.3213 -35.3076 -72.835c-9.98828 -30.5391 -17.5039 -61.2148 -23.5586 -92.7598c-12.1406 -63.2578 -15.8809 -126.48 -15.2891 -193.612zM222.935 -51.5762
c-1.12012 -1.6748 -2.14258 -3.78809 0 0zM238.35 -19.9365c4.18555 11.5898 7.91406 23.4395 11.1836 35.4395c-20.2793 -12.4395 -39.0625 -27.0527 -53.7744 -46.1289c-8.09766 -10.501 -17.9014 -26.5059 -11.6816 -40.1201
c1.23828 -2.71191 3.2373 -6.22559 6.24805 -7.41895c1.79199 -0.709961 3.20801 -1.25781 4.33203 -1.6748c-3.0332 -3.23047 -2.01172 -2.39355 0.464844 -0.168945c5.16602 -1.89062 3.02051 -0.569336 0.887695 0.802734
c0.37207 0.333984 0.763672 0.6875 1.16797 1.05371c1.62305 -0.375977 1.44824 0.473633 0.263672 0.238281c3.16992 2.86523 7.05957 6.34766 8.64453 7.32812c0.754883 0.464844 3.2373 2.47656 3.89258 2.89648c4.76855 4.87305 9.26953 10.7236 12.9844 16.1602
c0.452148 0.801758 1.03125 1.83984 1.79199 3.22168c1.74121 3.16406 3.53613 6.27734 5.17871 9.49219c2.76562 5.4209 7.3623 15.96 8.41602 18.8789zM262.377 84.9805c3.29492 35.4531 5.5332 74.6533 -1.3584 109.798
c-2.90625 14.8232 -11.3037 44.5947 -32.3379 36.6367c-13.4736 -5.09961 -25.9072 -25.5801 -32.8877 -37.0742c-18.1943 -29.959 -30.0166 -63.875 -40.4189 -97.1826c-10.291 -32.9482 -21.75 -68.4746 -22.6895 -103.422
c1.64844 -8.91602 3.31641 -17.832 5.06055 -26.7451c0.604492 -3.09082 0.855469 -6.10156 0.791992 -9.01758c15.1328 32.5156 47.833 56.1211 77.6523 73.7939c13.3281 7.89746 27.4199 14.9102 41.8457 21.5693c1.8623 10.5205 3.36133 21.085 4.3418 31.6436z" />
    <glyph glyph-name="c" unicode="c" horiz-adv-x="275" 
d="M275.269 168.067c8.10059 16.2305 34.2197 9.49316 26.4404 -9.36035c-14.9609 -36.2393 -33.1494 -70.6201 -55.5869 -102.823c-21.4414 -30.7744 -47.7207 -63.1621 -81.2227 -81.29c-31.417 -16.998 -67.3037 -19.8887 -99.0205 -2.42285
c-31.3281 17.249 -52.8105 45.334 -67.4023 77.3906c-31.5986 69.417 -18.7832 157.146 9.32031 225.3c14.8174 35.9307 42.3389 72.6729 80.418 85.5703c31.3916 10.6318 69.458 6.06055 88.417 -23.9756c20.041 -31.751 25.4395 -76.2607 21.2158 -113.118
c-1.53125 -13.3594 -27.7373 -16.708 -26.5918 -1.27344c1.06934 14.4258 0.0185547 29.915 -3.62012 43.8984c-3.31348 12.7393 -10.2109 36.6377 -26.457 38.2578c-2.26953 0.225586 -4.57129 -0.350586 -6.83789 -1.00586
c-1.87793 -0.543945 -8.33301 -4.18262 -9.47559 -4.81641c-4.42773 -2.66113 -11.1787 -10.8223 -14.9062 -17.2773c-13.4482 -23.2969 -22.2656 -45.7031 -28.7373 -71.2217c-12.1533 -47.9346 -13.4395 -101.978 2.11621 -148.801
c7.33105 -22.0684 17.625 -43.0957 37.0137 -57.1143c25.3691 -18.3408 51.2793 9.75977 68.1816 27.7822c37.2549 39.7256 62.6016 87.9434 86.7354 136.301z" />
    <glyph glyph-name="d" unicode="d" horiz-adv-x="550" 
d="M666.919 880.437c31.2646 -51.1807 28.3623 -115.067 17.043 -171.835c-15.1768 -76.1113 -48.0547 -148.947 -86.1406 -216.146c-42.1445 -74.3633 -92.8135 -144.599 -151.169 -207.099c-41.3711 -44.3086 -87.3447 -86.2744 -139.541 -117.752
c3.33887 -20.5752 7.03809 -41.2275 11.8096 -65.1074c5.49707 -27.5049 14.3018 -53.6377 21.6611 -80.5957c6.00684 -22.0049 12.4336 -46.4639 26.0664 -65.1426c6.03223 -8.26953 14.3975 -17.7422 25.2744 -17.7324c11.3223 0.00976562 21.5332 6.41699 30.21 13.0537
c19.793 15.1328 35.043 36.498 49.7334 56.3604c32.4551 43.8789 60.0332 91.6572 83.0029 141.136c6.55762 14.127 29.4473 8.08203 22.6797 -8.02441c-11.1533 -26.5537 -23.4434 -52.7158 -37.8281 -77.6836c-26.6104 -46.1904 -57.8906 -98.2178 -99.8721 -132.093
c-42.1631 -34.0176 -98.7686 -31.751 -140.41 1.49023c-47.2656 37.7295 -68.834 103.133 -83.9023 159.515c-8.16504 30.5449 -14.9639 61.249 -20.7158 92.1885c-9.44141 -41.2148 -19.459 -82.2637 -35.6836 -121.4
c-17.9014 -43.1816 -59.0781 -106.971 -114.648 -80.6338c-52.0498 24.666 -71.0469 93.8574 -66.9502 147.171c4.51074 58.6611 29.8613 118.901 82.2676 150.328c38.1143 22.8545 81.7041 22.9082 119.749 6.82715c-10.873 96.2539 -11.6592 192.938 0.194336 289.376
c12.6016 102.512 44.4258 209.668 117.268 286.174c16.3516 17.1758 34.4062 33.2568 54.1992 46.3906c3.57129 2.36816 7.29199 4.42773 10.9395 6.67188c2.67383 1.64258 4.24609 2.61621 5.08691 3.14746c5.00098 2.91602 10.0498 5.77148 15.165 8.47754
c8.28223 4.38281 16.832 8.2627 25.5859 11.6113c34.167 13.0605 71.0596 19.9453 107.662 18.8408c55.0195 -1.66113 121.626 -28.9941 151.264 -77.5146zM139.619 91.0127c14.1963 38.8779 23.666 79.1553 33.5977 119.298
c-17.4277 10.1982 -36.4023 19.4424 -56.6211 15.1416c-10.3193 -2.19629 -10.8926 -4.37402 -20.9736 -11.1572c-3.1416 -2.68652 -4.40234 -3.66016 -3.82031 -2.96582c-1.78223 -1.77344 -3.55176 -3.55957 -5.22266 -5.4375
c-2.10449 -2.3623 -4.11621 -4.79785 -6.04199 -7.30566c-3.21191 -4.25586 -3.77832 -5.05469 -1.70312 -2.40039c-23.7393 -37.335 -27.9375 -87.7041 -17.0254 -132.634c3.01074 -12.3916 16.0459 -61.2998 35.418 -47.1221
c21.5371 15.7598 33.6865 50.7451 42.3926 74.583zM657.211 731.378c6.71289 46.2061 4.43262 103.49 -30.5527 138.852c-37.5762 37.9678 -95.7568 41.1699 -143.274 32.0244c-31.4238 -6.04785 -53.1611 -17.9531 -79.1387 -37.4814
c-2.19629 -1.87793 -1.97363 -1.4707 0.667969 1.22559c-2.60059 -2.3877 -5.20117 -4.77148 -7.80469 -7.15918c-0.15918 -0.143555 -1.19727 -1.1084 -1.96094 -1.80859c-1.70605 -1.71875 -5.49707 -5.49707 -6.45801 -6.5
c-6.35352 -6.63379 -12.3408 -13.6211 -17.959 -20.8916c-1.41992 -1.83691 -6.99707 -9.73438 -6.67578 -9.0752c-2.2666 -3.48828 -4.46289 -7.02148 -6.57324 -10.6025c-5.26465 -8.93848 -9.99121 -18.1504 -14.4189 -27.5312
c-2.68066 -5.67871 -5.28809 -11.3896 -7.73242 -17.1738c-0.712891 -1.6875 -3.29785 -8.22852 -3.8584 -9.51758c-3.30078 -9.0498 -6.27734 -18.2041 -9.10352 -27.4131c-6.68164 -21.7695 -13.3125 -43.415 -18.3164 -65.6494
c-5.18555 -23.0459 -9.89941 -46.1807 -13.4072 -69.5479c-0.986328 -6.56641 -1.89941 -13.1455 -2.7334 -19.7314c-0.31543 -2.48242 -0.608398 -4.96875 -0.911133 -7.45117c-0.0507812 -0.404297 -0.0859375 -0.707031 -0.124023 -1.00586
c-0.0195312 -0.1875 -0.0322266 -0.321289 -0.0546875 -0.538086c-1.18457 -11.7422 -2.18359 -23.501 -2.9668 -35.2783c-6.46484 -97.1865 -0.541016 -195.738 12.9648 -292.097c2.03711 -14.5273 3.93066 -27.8359 5.83691 -40.6543
c0.324219 0.212891 0.655273 0.410156 0.979492 0.620117c59.0977 38.4834 109.757 89.2666 154.877 143.108c50.3379 60.0713 94.2744 125.682 130.221 195.344c31.6719 61.3799 58.4893 127.197 68.4775 195.934z" />
    <glyph glyph-name="e" unicode="e" horiz-adv-x="262" 
d="M264.849 166.26c6.37305 15.4092 30.8398 8.72656 24.1836 -8.55762c-16.1191 -41.8232 -36.9941 -81.2139 -62.5771 -118.017c-11.4277 -16.4404 -23.5586 -32.2002 -38.8467 -45.2637c-15.1006 -12.9043 -32.2793 -19.2227 -51.0791 -24.7393
c-85.5332 -25.0957 -138.983 65.7148 -151.77 136.596c-14.0918 78.1201 2.07812 174.775 62.2676 231.253c31.6436 29.6953 74.1025 49.1699 116.852 33.0791c31.1533 -11.7266 58.4131 -38.9551 56.7129 -74.5869c-1.66797 -34.8809 -32.6494 -62.8701 -59.082 -81.8984
c-27.1133 -19.5215 -58.0625 -32.8457 -88.9863 -45.1934c-0.37207 -22.8896 1.72266 -45.3721 6.72949 -67.5107c5.96484 -26.3818 13.5059 -51.5859 30.0996 -73.3047c7.30566 -9.5625 16.957 -19.5605 28.7852 -23.3389
c12.1943 -3.89648 23.9658 4.69824 32.9775 12.3408c22.084 18.7295 38.7314 45.6904 53.7051 70.1084c15.4766 25.2324 28.7188 51.6875 40.0283 79.0332zM88.7197 247.984c-5.60254 -12.9014 -10.709 -31.1416 -13.5801 -48.3652
c22.2021 9.11328 44.1494 19.0605 64.0664 32.4453c20.6074 13.8496 60.543 45.416 42.4502 73.793c-5.97461 9.37695 -17.6152 18.2646 -29.5361 16.1602c-5.39551 -0.952148 -13.2041 -5.56152 -18.001 -8.15918c0.671875 0.363281 -10.1504 -6.69336 -7.38379 -4.3252
c-18.4492 -15.791 -27.3271 -36.9463 -38.0156 -61.5488z" />
    <glyph glyph-name="e" unicode="&#xeb;" horiz-adv-x="262" 
d="M264.849 166.26c6.37305 15.4092 30.8398 8.72656 24.1836 -8.55762c-16.1191 -41.8232 -36.9941 -81.2139 -62.5771 -118.017c-11.4277 -16.4404 -23.5586 -32.2002 -38.8467 -45.2637c-15.1006 -12.9043 -32.2793 -19.2227 -51.0791 -24.7393
c-85.5332 -25.0957 -138.983 65.7148 -151.77 136.596c-14.0918 78.1201 2.07812 174.775 62.2676 231.253c31.6436 29.6953 74.1025 49.1699 116.852 33.0791c31.1533 -11.7266 58.4131 -38.9551 56.7129 -74.5869c-1.66797 -34.8809 -32.6494 -62.8701 -59.082 -81.8984
c-27.1133 -19.5215 -58.0625 -32.8457 -88.9863 -45.1934c-0.37207 -22.8896 1.72266 -45.3721 6.72949 -67.5107c5.96484 -26.3818 13.5059 -51.5859 30.0996 -73.3047c7.30566 -9.5625 16.957 -19.5605 28.7852 -23.3389
c12.1943 -3.89648 23.9658 4.69824 32.9775 12.3408c22.084 18.7295 38.7314 45.6904 53.7051 70.1084c15.4766 25.2324 28.7188 51.6875 40.0283 79.0332zM88.7197 247.984c-5.60254 -12.9014 -10.709 -31.1416 -13.5801 -48.3652
c22.2021 9.11328 44.1494 19.0605 64.0664 32.4453c20.6074 13.8496 60.543 45.416 42.4502 73.793c-5.97461 9.37695 -17.6152 18.2646 -29.5361 16.1602c-5.39551 -0.952148 -13.2041 -5.56152 -18.001 -8.15918c0.671875 0.363281 -10.1504 -6.69336 -7.38379 -4.3252
c-18.4492 -15.791 -27.3271 -36.9463 -38.0156 -61.5488z" />
    <glyph glyph-name="e" unicode="&#xea;" horiz-adv-x="262" 
d="M264.849 166.26c6.37305 15.4092 30.8398 8.72656 24.1836 -8.55762c-16.1191 -41.8232 -36.9941 -81.2139 -62.5771 -118.017c-11.4277 -16.4404 -23.5586 -32.2002 -38.8467 -45.2637c-15.1006 -12.9043 -32.2793 -19.2227 -51.0791 -24.7393
c-85.5332 -25.0957 -138.983 65.7148 -151.77 136.596c-14.0918 78.1201 2.07812 174.775 62.2676 231.253c31.6436 29.6953 74.1025 49.1699 116.852 33.0791c31.1533 -11.7266 58.4131 -38.9551 56.7129 -74.5869c-1.66797 -34.8809 -32.6494 -62.8701 -59.082 -81.8984
c-27.1133 -19.5215 -58.0625 -32.8457 -88.9863 -45.1934c-0.37207 -22.8896 1.72266 -45.3721 6.72949 -67.5107c5.96484 -26.3818 13.5059 -51.5859 30.0996 -73.3047c7.30566 -9.5625 16.957 -19.5605 28.7852 -23.3389
c12.1943 -3.89648 23.9658 4.69824 32.9775 12.3408c22.084 18.7295 38.7314 45.6904 53.7051 70.1084c15.4766 25.2324 28.7188 51.6875 40.0283 79.0332zM88.7197 247.984c-5.60254 -12.9014 -10.709 -31.1416 -13.5801 -48.3652
c22.2021 9.11328 44.1494 19.0605 64.0664 32.4453c20.6074 13.8496 60.543 45.416 42.4502 73.793c-5.97461 9.37695 -17.6152 18.2646 -29.5361 16.1602c-5.39551 -0.952148 -13.2041 -5.56152 -18.001 -8.15918c0.671875 0.363281 -10.1504 -6.69336 -7.38379 -4.3252
c-18.4492 -15.791 -27.3271 -36.9463 -38.0156 -61.5488z" />
    <glyph glyph-name="e" unicode="&#xe9;" horiz-adv-x="262" 
d="M264.849 166.26c6.37305 15.4092 30.8398 8.72656 24.1836 -8.55762c-16.1191 -41.8232 -36.9941 -81.2139 -62.5771 -118.017c-11.4277 -16.4404 -23.5586 -32.2002 -38.8467 -45.2637c-15.1006 -12.9043 -32.2793 -19.2227 -51.0791 -24.7393
c-85.5332 -25.0957 -138.983 65.7148 -151.77 136.596c-14.0918 78.1201 2.07812 174.775 62.2676 231.253c31.6436 29.6953 74.1025 49.1699 116.852 33.0791c31.1533 -11.7266 58.4131 -38.9551 56.7129 -74.5869c-1.66797 -34.8809 -32.6494 -62.8701 -59.082 -81.8984
c-27.1133 -19.5215 -58.0625 -32.8457 -88.9863 -45.1934c-0.37207 -22.8896 1.72266 -45.3721 6.72949 -67.5107c5.96484 -26.3818 13.5059 -51.5859 30.0996 -73.3047c7.30566 -9.5625 16.957 -19.5605 28.7852 -23.3389
c12.1943 -3.89648 23.9658 4.69824 32.9775 12.3408c22.084 18.7295 38.7314 45.6904 53.7051 70.1084c15.4766 25.2324 28.7188 51.6875 40.0283 79.0332zM88.7197 247.984c-5.60254 -12.9014 -10.709 -31.1416 -13.5801 -48.3652
c22.2021 9.11328 44.1494 19.0605 64.0664 32.4453c20.6074 13.8496 60.543 45.416 42.4502 73.793c-5.97461 9.37695 -17.6152 18.2646 -29.5361 16.1602c-5.39551 -0.952148 -13.2041 -5.56152 -18.001 -8.15918c0.671875 0.363281 -10.1504 -6.69336 -7.38379 -4.3252
c-18.4492 -15.791 -27.3271 -36.9463 -38.0156 -61.5488z" />
    <glyph glyph-name="f" unicode="f" horiz-adv-x="383" 
d="M393.115 165.565c14.7598 9.38672 28.8135 -9.55957 13.9355 -19.1855c-63.6621 -41.1992 -139.888 -60.3262 -208.646 -91.0938c-17.1729 -7.68359 -34.2598 -15.8672 -50.1846 -25.9326c-0.582031 -0.369141 -1.19922 -0.818359 -1.82031 -1.27637
c1.60449 -4.07422 3.24414 -8.13281 4.89941 -12.1816c2.10742 -0.328125 4.21191 -0.678711 6.32227 -0.99707c44.9072 -6.76758 93.3828 -13.1211 127.258 -46.5469c23.9463 -23.6318 32.8203 -57.3604 22.0293 -89.5254
c-14.1777 -42.2588 -49.1182 -67.6729 -94.9834 -61.2109c-21.7119 3.05859 -46.1641 9.98535 -64.0908 22.9688c-16.6543 12.0645 -31.3125 28.1992 -43.7588 44.4844c-26.2705 34.374 -45.7793 75.9961 -62.3701 115.728
c-35.9912 86.1953 -57.2412 178.601 -60.3193 272.054c-3.05566 92.7939 11.7461 190.385 57.6309 272.261c42.8154 76.4004 117.87 135.243 207.841 138.933c37.5156 1.53711 80.2646 -7.72559 100.276 -42.8037c21.3232 -37.376 15.5967 -79.0303 3.2334 -118.348
c-50.6816 -161.192 -148.97 -301.163 -219.112 -453.818c1.87207 -5.43066 3.80078 -10.8389 5.76465 -16.2314c0.849609 0.509766 1.65137 0.987305 2.34863 1.39453c26.6582 15.6133 55.0928 27.8301 83.7627 39.2129c56.5029 22.4346 118.338 39.2764 169.983 72.1162z
M118.531 108.852c29.332 60.8223 62.2617 119.878 94.1504 179.418c43.1787 80.6221 87.9844 164.652 110.772 253.795c9.0498 35.3965 9.63867 84.0889 -31.7607 98.6162c-32.7764 11.5039 -72.5879 -2.1416 -99.6885 -21.2559
c-61.208 -43.1758 -85.04 -114.286 -97.7822 -184.314c-19.5352 -107.369 -7.3252 -219.431 24.3086 -326.259zM221.483 -28.3877c-18.3379 6.87891 -37.582 10.1318 -56.8496 13.0762c1.94531 -4.35449 3.91211 -8.69336 5.9082 -13.0127
c1.33008 -2.87793 2.68945 -5.74316 4.07715 -8.5957c-1.42578 2.64844 -1.40332 2.58496 0.0703125 -0.19043c1.82715 -3.57129 3.70801 -7.12695 5.64062 -10.6406c3.8291 -6.9707 7.89746 -13.8145 12.3535 -20.4062c4.69531 -6.94531 9.75977 -13.7061 15.4102 -19.9072
c0.505859 -0.455078 1.6709 -1.56934 4.03613 -3.91211c4.00098 -3.18359 7.375 -6.89844 10.1279 -11.1416c-0.331055 0.290039 -0.665039 0.580078 -0.996094 0.870117c10.6406 -10.3164 27.2119 -20.2227 42.624 -20.248
c13.3086 -0.0224609 16.6445 10.6348 17.335 22.9629c1.99902 35.7051 -29.5234 59.8135 -59.7373 71.1455z" />
    <glyph glyph-name="g" unicode="g" horiz-adv-x="439" 
d="M443.066 160.184c6.65234 14.9316 30.9072 8.48047 23.8027 -8.42188c-10.9053 -25.9453 -38.5664 -47.4473 -58.6006 -65.96c-28.5879 -26.417 -58.4072 -51.5254 -88.2773 -76.5127c0.709961 -83.8145 -2.89355 -167.721 -12.0957 -251.016
c-4.94336 -44.7285 -12.7607 -89.0273 -24.5762 -132.483c-10.6699 -39.2412 -25.5 -81.2266 -53.1836 -111.8c-48.9307 -54.0391 -129.266 -77.3779 -194.933 -38.8369c-66.457 39.0059 -80.8291 122.447 -60.9414 191.778c14.709 51.2793 42.7393 99.1025 78.3584 138.637
c49.8984 55.3857 107.061 104.523 164.672 152.433c-0.626953 37.5381 -1.93164 75.0635 -4.625 112.605c-3.08105 42.9365 -7.61035 84.874 -13.4355 126.512c-0.414062 0.0888672 -0.824219 0.207031 -1.23438 0.3125
c-10.3262 -45.3848 -20.6709 -90.7822 -38.5283 -133.859c-17.9014 -43.1816 -59.0781 -106.971 -114.648 -80.6338c-52.0469 24.666 -71.0469 93.8574 -66.9502 147.171c4.50684 58.6611 29.8604 118.901 82.2666 150.328c39.8115 23.873 85.6006 22.874 124.801 4.58398
c-1.22852 6.65234 -2.44434 13.2988 -3.74023 19.9609c-5.7041 29.3486 8.72461 54.2402 35.918 66.8799c22.6162 10.5107 58.6396 2.93457 65.5664 -24.1982c24.5674 -96.2412 34.082 -196.761 36.6221 -295.866c0.0732422 -2.89062 0.0957031 -5.78125 0.15918 -8.67188
c23.0361 19.4141 45.9512 38.9678 68.5127 58.9385c18.5068 16.3799 46.1777 38.1045 55.0908 58.1201zM139.951 91.0156c14.1963 38.8779 23.6699 79.1543 33.5977 119.297c-17.4277 10.1982 -36.4023 19.4424 -56.6211 15.1416
c-10.3193 -2.19629 -10.8926 -4.37402 -20.9736 -11.1572c-3.1416 -2.68652 -4.40234 -3.66016 -3.82031 -2.96582c-1.78223 -1.77637 -3.55176 -3.55859 -5.22266 -5.43652c-2.10449 -2.3623 -4.11621 -4.79785 -6.04199 -7.30566
c-3.21191 -4.25586 -3.77832 -5.05469 -1.70312 -2.40039c-23.7393 -37.335 -27.9375 -87.7041 -17.0254 -132.634c3.00781 -12.3916 16.0459 -61.2998 35.418 -47.1221c21.5371 15.7598 33.6865 50.7451 42.3926 74.583zM217.734 -166.427
c0.0859375 30.0742 0.188477 60.1152 -0.0185547 90.1387c-47.1035 -39.8369 -93.3604 -80.8125 -135.275 -125.773c-31.9268 -34.2441 -57.5059 -73.1289 -73.4375 -117.523c-23.9209 -66.6572 -15.3936 -153.55 57.0059 -185.737
c34.3105 -15.2539 71.1006 -12.6152 96.4414 16.4277c20.6006 23.6123 30.5195 57.3818 36.832 87.4941c16.126 76.9551 18.2266 156.6 18.4521 234.974z" />
    <glyph glyph-name="h" unicode="h" horiz-adv-x="487" 
d="M489.634 152.85c4.86719 13.4863 30.2539 13.8555 24.5723 -1.87207c-24.2588 -67.2402 -49.1797 -134.241 -89.4805 -193.826c-14.792 -21.874 -32.7227 -50.1396 -62.0293 -51.7246c-27.5752 -1.49316 -51.1934 19.6582 -68.29 38.8711
c-24.207 27.2061 -36.4336 60.1348 -39.2412 96.085c-2.7793 35.5645 4.09668 72.0908 5.85742 107.649c0.866211 17.4336 2.70898 36.3506 0.674805 53.7148c-0.748047 6.40137 -2.97266 21.5947 -7.97656 25.6465c-15.9121 12.8945 -49.6787 -56.3184 -55.042 -67.0039
c-28.6895 -57.1494 -49.7012 -117.559 -63.5225 -179.881c0.849609 -4.50684 1.71191 -9.01367 2.59375 -13.5176c3.37695 -17.2334 -3.88086 -32.0352 -19.0098 -40.8174c-12.0674 -7.00293 -34.585 -8.62988 -42.7812 5.94531
c-21.8584 38.8652 -40.0146 77.2598 -52.499 120.251c-12.3027 42.3643 -21.9062 85.1416 -29.0332 128.667c-13.4961 82.4297 -18.4395 165.83 -13.627 249.233c4.36426 75.624 13.3154 151.369 40.0635 222.633c24.5449 65.3965 68.042 130.315 128.894 166.845
c50.9229 30.5674 117.08 51.6172 176.744 41.7588c61.7139 -10.1953 111.494 -49.2139 122.333 -112.879c11.501 -67.5586 -19.4805 -138.042 -47.6221 -197.913c-26.4102 -56.1846 -59.6924 -108.995 -97.791 -157.971
c-60.7715 -78.123 -134.26 -143.972 -206.876 -210.636c0.786133 -5.42383 1.54688 -10.8447 2.39648 -16.2715c4.89844 -31.2832 10.9492 -62.2266 18.0889 -93.084c2.45117 -10.5898 4.66309 -21.2051 6.77051 -31.833c13.3877 47.8584 31.1846 94.4785 53.5811 138.86
c14.9736 29.6729 31.5859 54.5234 58.4102 74.4717c14.251 10.5967 27.3018 19.3594 46.0117 18.7773c15.3135 -0.477539 29.3672 -6.5 39.9697 -17.3926c51.9199 -53.3486 38.9141 -143.383 31.8887 -210.537c-1.56934 -15.0117 -4.94336 -35.2812 -7.4043 -52.3174
c-1.90039 -13.1465 -2.98242 -28.0215 0.573242 -40.9287c1.93555 -7.03125 5.06152 -15.9277 12.3633 -19.1807c9.57129 -4.26562 17.5674 2.48242 23.9268 8.91211c10.6445 10.7559 19.3252 24.3027 27.5977 36.8789c35.3066 53.6797 57.2354 114.305 78.915 174.386z
M81.8584 374.071c0.483398 -54.7012 4.06738 -108.779 10.7549 -162.806c69.8467 63.6875 139.557 127.524 197.298 202.897c35.5078 46.3496 65.833 96.5186 90.1904 149.594c26.041 56.7451 57.5312 127.216 39.2471 190.544
c-17.6377 61.0898 -83.0127 84.6699 -141.286 73.373c-24.4053 -4.7334 -51.7383 -16.0781 -69.9932 -33.2793c-18.9932 -17.8955 -38.4072 -41.4092 -52.0566 -61.1162c-14.4355 -20.8457 -27.6172 -49.3213 -35.3076 -72.835
c-9.98828 -30.5391 -17.5039 -61.2148 -23.5586 -92.7598c-12.1367 -63.2578 -15.8799 -126.48 -15.2881 -193.612z" />
    <glyph glyph-name="i" unicode="i" horiz-adv-x="237" 
d="M239.01 158.241c7.3916 15.3486 33.1426 8.63379 24.9365 -8.8252c-22.9629 -48.8291 -47.5869 -97.6768 -82.541 -139.21c-15.8486 -18.8311 -34.4316 -38.4648 -59.3232 -44.3125c-26.1777 -6.15332 -50.8281 -6.03516 -74.4727 8.13281
c-54.1602 32.4551 -60.3389 101.531 -62.1982 158.557c-2.09766 64.3213 3.92188 128.891 15.6455 192.098c4.4502 24.001 29.5107 41.085 52.5186 42.374c21.6543 1.21289 44.207 -14.1611 43.7773 -37.7607c-0.939453 -51.6709 -6.0166 -103.126 -9.65137 -154.66
c-3.25 -46.0654 -4.86719 -92.1562 4.51367 -137.563c2.7627 -13.3818 10.7109 -43.1279 29.1123 -42.0391c18.8252 1.11426 38.2773 30.5322 48.5557 43.7227c28.377 36.4111 49.1787 78.0684 69.127 119.487zM44.541 422.517
c-4.84766 -1.86523 -10.4238 -1.5918 -14.3232 2.59375c-13.0732 14.0312 -55.0039 50.6846 -34.4893 72.7754c14.3018 15.3994 32.9805 -3.21875 46.2002 -21.0059c0.197266 0.525391 0.378906 1.06348 0.595703 1.57617c3.70215 8.79492 8.66797 16.9346 14.585 24.418
c8.38086 10.5938 24.7197 28.8486 40.0879 22.0557c18.7676 -8.29785 1.36523 -33.1582 -5.3291 -43.666c-11.5264 -18.0928 -23.5938 -35.7812 -36.9561 -52.5752c-2.98242 -3.75 -6.67188 -5.64355 -10.3711 -6.17188z" />
    <glyph glyph-name="i" unicode="&#xef;" horiz-adv-x="237" 
d="M239.01 158.241c7.3916 15.3486 33.1426 8.63379 24.9365 -8.8252c-22.9629 -48.8291 -47.5869 -97.6768 -82.541 -139.21c-15.8486 -18.8311 -34.4316 -38.4648 -59.3232 -44.3125c-26.1777 -6.15332 -50.8281 -6.03516 -74.4727 8.13281
c-54.1602 32.4551 -60.3389 101.531 -62.1982 158.557c-2.09766 64.3213 3.92188 128.891 15.6455 192.098c4.4502 24.001 29.5107 41.085 52.5186 42.374c21.6543 1.21289 44.207 -14.1611 43.7773 -37.7607c-0.939453 -51.6709 -6.0166 -103.126 -9.65137 -154.66
c-3.25 -46.0654 -4.86719 -92.1562 4.51367 -137.563c2.7627 -13.3818 10.7109 -43.1279 29.1123 -42.0391c18.8252 1.11426 38.2773 30.5322 48.5557 43.7227c28.377 36.4111 49.1787 78.0684 69.127 119.487zM44.541 422.517
c-4.84766 -1.86523 -10.4238 -1.5918 -14.3232 2.59375c-13.0732 14.0312 -55.0039 50.6846 -34.4893 72.7754c14.3018 15.3994 32.9805 -3.21875 46.2002 -21.0059c0.197266 0.525391 0.378906 1.06348 0.595703 1.57617c3.70215 8.79492 8.66797 16.9346 14.585 24.418
c8.38086 10.5938 24.7197 28.8486 40.0879 22.0557c18.7676 -8.29785 1.36523 -33.1582 -5.3291 -43.666c-11.5264 -18.0928 -23.5938 -35.7812 -36.9561 -52.5752c-2.98242 -3.75 -6.67188 -5.64355 -10.3711 -6.17188z" />
    <glyph glyph-name="i" unicode="&#xee;" horiz-adv-x="237" 
d="M239.01 158.241c7.3916 15.3486 33.1426 8.63379 24.9365 -8.8252c-22.9629 -48.8291 -47.5869 -97.6768 -82.541 -139.21c-15.8486 -18.8311 -34.4316 -38.4648 -59.3232 -44.3125c-26.1777 -6.15332 -50.8281 -6.03516 -74.4727 8.13281
c-54.1602 32.4551 -60.3389 101.531 -62.1982 158.557c-2.09766 64.3213 3.92188 128.891 15.6455 192.098c4.4502 24.001 29.5107 41.085 52.5186 42.374c21.6543 1.21289 44.207 -14.1611 43.7773 -37.7607c-0.939453 -51.6709 -6.0166 -103.126 -9.65137 -154.66
c-3.25 -46.0654 -4.86719 -92.1562 4.51367 -137.563c2.7627 -13.3818 10.7109 -43.1279 29.1123 -42.0391c18.8252 1.11426 38.2773 30.5322 48.5557 43.7227c28.377 36.4111 49.1787 78.0684 69.127 119.487zM44.541 422.517
c-4.84766 -1.86523 -10.4238 -1.5918 -14.3232 2.59375c-13.0732 14.0312 -55.0039 50.6846 -34.4893 72.7754c14.3018 15.3994 32.9805 -3.21875 46.2002 -21.0059c0.197266 0.525391 0.378906 1.06348 0.595703 1.57617c3.70215 8.79492 8.66797 16.9346 14.585 24.418
c8.38086 10.5938 24.7197 28.8486 40.0879 22.0557c18.7676 -8.29785 1.36523 -33.1582 -5.3291 -43.666c-11.5264 -18.0928 -23.5938 -35.7812 -36.9561 -52.5752c-2.98242 -3.75 -6.67188 -5.64355 -10.3711 -6.17188z" />
    <glyph glyph-name="i" unicode="&#xed;" horiz-adv-x="237" 
d="M239.01 158.241c7.3916 15.3486 33.1426 8.63379 24.9365 -8.8252c-22.9629 -48.8291 -47.5869 -97.6768 -82.541 -139.21c-15.8486 -18.8311 -34.4316 -38.4648 -59.3232 -44.3125c-26.1777 -6.15332 -50.8281 -6.03516 -74.4727 8.13281
c-54.1602 32.4551 -60.3389 101.531 -62.1982 158.557c-2.09766 64.3213 3.92188 128.891 15.6455 192.098c4.4502 24.001 29.5107 41.085 52.5186 42.374c21.6543 1.21289 44.207 -14.1611 43.7773 -37.7607c-0.939453 -51.6709 -6.0166 -103.126 -9.65137 -154.66
c-3.25 -46.0654 -4.86719 -92.1562 4.51367 -137.563c2.7627 -13.3818 10.7109 -43.1279 29.1123 -42.0391c18.8252 1.11426 38.2773 30.5322 48.5557 43.7227c28.377 36.4111 49.1787 78.0684 69.127 119.487zM44.541 422.517
c-4.84766 -1.86523 -10.4238 -1.5918 -14.3232 2.59375c-13.0732 14.0312 -55.0039 50.6846 -34.4893 72.7754c14.3018 15.3994 32.9805 -3.21875 46.2002 -21.0059c0.197266 0.525391 0.378906 1.06348 0.595703 1.57617c3.70215 8.79492 8.66797 16.9346 14.585 24.418
c8.38086 10.5938 24.7197 28.8486 40.0879 22.0557c18.7676 -8.29785 1.36523 -33.1582 -5.3291 -43.666c-11.5264 -18.0928 -23.5938 -35.7812 -36.9561 -52.5752c-2.98242 -3.75 -6.67188 -5.64355 -10.3711 -6.17188z" />
    <glyph glyph-name="j" unicode="j" horiz-adv-x="229" 
d="M233.88 160.184c6.64941 14.9316 30.9062 8.47559 23.8047 -8.42676c-10.9023 -25.9453 -38.5664 -47.4502 -58.5977 -65.9629c-28.5654 -26.4004 -58.3652 -51.4863 -88.2129 -76.458c0.789062 -88.0801 -3.41895 -176.093 -13.5283 -262.794
c-4.99121 -42.7939 -13.1943 -85.2344 -24.8447 -126.723c-10.8955 -38.8018 -26.4385 -80.1025 -54.5615 -109.816c-50.6182 -53.4824 -133.996 -73.752 -198.085 -30.9707c-118.087 78.8262 -50.1465 245.538 25.4717 328.614
c49.3926 54.2656 105.529 102.63 162.176 149.804c-0.887695 36.8662 -2.38672 73.7236 -4.87891 110.619c-5.50684 81.5225 -14.4541 162.686 -20.9346 244.106c-2.31445 29.0615 25.5029 52.8613 51.3496 58.1738c28.1865 5.79297 50.2197 -13.6523 53.9062 -40.4092
c13.0059 -94.3945 21.1357 -190.518 23.3955 -286.746c23.3672 19.707 46.6104 39.5537 69.5098 59.8105c18.1885 16.0908 45.2988 37.5771 54.0303 57.1787zM-10.0146 -401.396c16.1162 77.0059 18.3701 156.546 18.6025 234.975
c0.0888672 29.9814 0.00292969 59.915 -0.426758 89.8262c-46.9766 -39.7412 -93.1025 -80.6221 -134.912 -125.469c-31.9229 -34.2441 -57.502 -73.1289 -73.4336 -117.523c-23.9209 -66.6572 -15.3936 -153.546 57.0029 -185.733
c17.4307 -7.74805 37.7266 -11.6025 56.7139 -8.43848c15.543 2.59082 29.1953 13.6016 39.2861 25.1816c20.6045 23.6406 30.8545 57.0283 37.167 87.1816zM9.24316 428.125c-13.5859 16.167 -28.2656 31.0723 -43.8945 45.3105
c-12.6211 11.4971 3.01465 28.0078 16.7812 24.6113c9.61328 -2.36816 17.3896 -7.17773 24.5098 -13.9961c1.7793 -1.70312 5.72656 -6.78027 9.70215 -11.6914c0.512695 1.91309 1.03516 3.82617 1.61426 5.72656c2.59082 8.50488 5.69727 17.1475 10.1885 24.8477
c6.87598 11.7871 21.1143 31.0771 37.3135 26.6748c21.0049 -5.70703 9.10352 -30.6211 3.9375 -43.6182c-8.30469 -20.8936 -18.583 -40.8066 -30.4277 -59.9023c-8.13965 -13.124 -29.7656 -9.90625 -29.7246 2.03711z" />
    <glyph glyph-name="k" unicode="k" horiz-adv-x="405" 
d="M411.821 157.338c10.0264 13.3018 29.7178 0.279297 19.1309 -13.9111c-26.6523 -35.7021 -41.7627 -78.0918 -64.5283 -116.12c-20.2285 -33.792 -45.9668 -65.9668 -88.1367 -69.1367c-19.4229 -1.46094 -43.0098 0.0253906 -61.2363 7.59473
c-20.3975 8.47363 -34.3271 24.8789 -45.0859 43.5703c-11.1182 19.3115 -19.6836 40.9912 -25.127 62.5723c-2.81055 11.1475 -5.86621 22.6006 -5.58301 34.1963c0.178711 7.36523 1.12109 11.124 0.178711 15.0518
c-8.14551 -24.6406 -13.8975 -50.2549 -18.5225 -75.7422c5.26465 -26.0947 9.71484 -52.2822 14.8369 -78.4219c3.37695 -17.2334 -3.88086 -32.0352 -19.0098 -40.8174c-12.0674 -7.00293 -34.585 -8.62988 -42.7812 5.94531
c-21.8584 38.8652 -40.0146 77.2598 -52.499 120.251c-12.3027 42.3643 -21.9062 85.1416 -29.0332 128.667c-13.4961 82.4297 -18.4424 165.83 -13.626 249.233c4.36426 75.624 13.3154 151.369 40.0635 222.633c24.5449 65.3965 68.042 130.315 128.894 166.845
c50.9199 30.5674 117.077 51.6172 176.741 41.7588c61.7139 -10.1953 111.494 -49.2139 122.333 -112.879c11.501 -67.5586 -19.4805 -138.042 -47.6221 -197.913c-26.4102 -56.1846 -59.6924 -108.995 -97.791 -157.971
c-60.7715 -78.123 -134.26 -143.972 -206.876 -210.636c0.786133 -5.42383 1.54688 -10.8447 2.39648 -16.2715c3.27246 -20.8877 7.10449 -41.6191 11.3828 -62.2773c6.75488 24.6973 15.4033 48.8154 27.1299 71.7559c19.5312 38.2129 53.8828 89.0537 99.6494 97.167
c19.834 3.51758 40.7598 -5.70703 43.5605 -27.3457c2.69336 -20.7852 -8.90918 -42.2197 -20.8809 -58.2686c-17.8447 -23.918 -49.3955 -48.1768 -81.6113 -55.0078c6.01562 -4.01074 11.541 -8.50195 16.1533 -14.3721c12.0771 -15.3682 18.1348 -35.2432 27.124 -52.375
c7.88477 -15.0273 17.6064 -28.1963 27.1621 -42.0742c8.3623 -12.1436 15.4541 -27.2246 30.5195 -31.9199c38.6074 -12.0293 63.9482 43.4873 77.9512 70.2764c17.125 32.7705 32.3721 66.2627 54.7432 95.9424zM81.8467 374.075
c0.483398 -54.7012 4.07129 -108.779 10.7559 -162.806c69.8467 63.6875 139.557 127.524 197.298 202.897c35.5078 46.3496 65.833 96.5186 90.1904 149.594c26.041 56.7451 57.5312 127.216 39.2471 190.544c-17.6377 61.0898 -83.0127 84.6699 -141.286 73.373
c-24.4053 -4.7334 -51.7383 -16.0781 -69.9932 -33.2793c-18.9932 -17.8955 -38.4072 -41.4092 -52.0566 -61.1162c-14.4355 -20.8457 -27.6172 -49.3213 -35.3076 -72.835c-9.98828 -30.5391 -17.5039 -61.2148 -23.5586 -92.7598
c-12.1406 -63.2578 -15.8809 -126.48 -15.2891 -193.612zM157.138 158.624c31.3691 -7.77637 68.3203 21.0654 84.7705 45.1074c7.28613 10.6475 23.6475 41.5684 0.662109 44.4678c-16.667 2.10059 -36.5713 -18.3984 -46.5439 -29.2783
c-16.5811 -18.0898 -29.457 -38.4424 -39.6943 -60.1387c0.267578 -0.0537109 0.535156 -0.0917969 0.805664 -0.158203z" />
    <glyph glyph-name="l" unicode="l" horiz-adv-x="353" 
d="M469.798 880.437c31.2646 -51.1807 28.3643 -115.067 17.0449 -171.835c-15.1768 -76.1113 -48.0547 -148.947 -86.1406 -216.146c-42.1445 -74.3633 -92.8135 -144.599 -151.169 -207.099c-41.3711 -44.3086 -87.3447 -86.2744 -139.541 -117.752
c3.33887 -20.5752 7.03809 -41.2275 11.8096 -65.1074c5.49707 -27.5049 14.3018 -53.6377 21.6611 -80.5957c6.00684 -22.0049 12.4336 -46.4639 26.0664 -65.1426c6.03223 -8.26953 14.3975 -17.7422 25.2744 -17.7324c11.3223 0.00976562 21.5332 6.41699 30.21 13.0537
c19.793 15.1328 35.043 36.498 49.7334 56.3604c32.4551 43.8789 60.0332 91.6572 83.0029 141.136c6.56055 14.127 29.4473 8.08203 22.6797 -8.02441c-11.1533 -26.5537 -23.4434 -52.7158 -37.8281 -77.6836c-26.6104 -46.1904 -57.8906 -98.2178 -99.873 -132.093
c-42.1631 -34.0176 -98.7686 -31.751 -140.41 1.49023c-47.2656 37.7295 -68.834 103.133 -83.9023 159.515c-13.6934 51.2451 -23.625 102.929 -31.0352 155.456c-15.3906 109.123 -18.2109 218.918 -4.75293 328.4c12.6016 102.512 44.4258 209.668 117.268 286.174
c16.3516 17.1758 34.4062 33.2568 54.1992 46.3906c3.57129 2.36816 7.29199 4.42773 10.9395 6.67188c2.67383 1.64258 4.24609 2.61621 5.08691 3.14746c5.00098 2.91602 10.0527 5.77148 15.165 8.47754c8.28223 4.38281 16.832 8.2627 25.5859 11.6113
c34.167 13.0605 71.0596 19.9453 107.662 18.8408c55.0195 -1.66113 121.626 -28.9941 151.264 -77.5146zM460.089 731.376c6.7168 46.2061 4.43359 103.49 -30.5518 138.852c-37.5762 37.9678 -95.7568 41.1699 -143.274 32.0244
c-31.4238 -6.04785 -53.1611 -17.9531 -79.1387 -37.4814c-2.19922 -1.87793 -1.97363 -1.4707 0.667969 1.22559c-2.60352 -2.3877 -5.2041 -4.77148 -7.80762 -7.15918c-0.15918 -0.143555 -1.19727 -1.1084 -1.96094 -1.80859
c-1.70605 -1.71875 -5.49707 -5.49707 -6.45801 -6.5c-6.35352 -6.63379 -12.3408 -13.6211 -17.959 -20.8916c-1.41992 -1.83691 -6.99316 -9.73438 -6.6748 -9.0752c-2.2666 -3.48828 -4.46289 -7.02148 -6.57324 -10.6025
c-5.26465 -8.93848 -9.99121 -18.1504 -14.4189 -27.5312c-2.68066 -5.67871 -5.28809 -11.3896 -7.73242 -17.1738c-0.712891 -1.6875 -3.29785 -8.22852 -3.8584 -9.51758c-3.30078 -9.0498 -6.27734 -18.2041 -9.10352 -27.4131
c-6.68164 -21.7695 -13.3125 -43.415 -18.3164 -65.6494c-5.18555 -23.0459 -9.89941 -46.1807 -13.4072 -69.5479c-0.986328 -6.56641 -1.89941 -13.1455 -2.7334 -19.7314c-0.31543 -2.48242 -0.608398 -4.96875 -0.911133 -7.45117
c-0.0507812 -0.404297 -0.0859375 -0.707031 -0.124023 -1.00586c-0.0195312 -0.1875 -0.0322266 -0.321289 -0.0546875 -0.538086c-1.18457 -11.7422 -2.18359 -23.501 -2.9668 -35.2783c-6.46484 -97.1865 -0.541016 -195.738 12.9648 -292.097
c2.03711 -14.5273 3.93066 -27.8359 5.83691 -40.6543c0.324219 0.212891 0.655273 0.410156 0.979492 0.620117c59.0977 38.4834 109.757 89.2666 154.877 143.108c50.3379 60.0713 94.2744 125.682 130.222 195.344c31.6719 61.3799 58.4893 127.197 68.4775 195.934z" />
    </font>
</defs>
</svg>
